UK

Rick Stein's Food Heroes S01E04 (2002) [TVRip (DivX)]

  • Download 5x Faster
  • Download torrent
  • Direct Download
  • Rate this torrent +  |  -
Rick Stein's Food Heroes S01E04 (2002) [TVRip (DivX)]

Anonymous and Free Direct Download 300GB+


Torrent info

Name:Rick Stein's Food Heroes S01E04 (2002) [TVRip (DivX)]

Total Size: 234.75 MB

Magnet: Magnet Link

Seeds: 0

Leechers: 0

Stream: Watch Online @ Movie4u

Last Updated: 2016-02-02 05:50:10 (Update Now)

Torrent added: 2009-09-07 22:17:24



VPN For Torrents

Torrent Files List


Rick Stein's Food Heroes Episode 4.avi (Size: 234.75 MB) (Files: 1)

 Rick Stein's Food Heroes Episode 4.avi

234.75 MB
 

tracker

leech seeds
 

Torrent description

This torrent was uploaded from www.TheBox.bz (signup is open and free) - the home of all British TV

Rick Stein's - Food Heroes [2002]

Series Synopsis: Rick Stein takes his viewers on a gastronomic tour of the British countryside. Travelling through the often bleak and rambling countryside from Land’s End to John O’Groats, the intrepid chef tracks down a vast array of traditional and local culinary delights along the way. Think of the various dishes as signposts marking Stein’s route northwards. From Cornish crab and cream soup to Hollygog pudding from Oxfordshire, from the secret of Worcestershire Sauce to Welsh lamb with honey and rosemary, the variety of dishes he brings to the screen is enormous. Stein also meets cheese makers, ham curers, brewers, asparagus growers and pie makers - the unsung heroes of this land.

In the middle of a foot and mouth crisis, Rick heads north in search of Lancashire Hotpot. He visits a wild boar farmer, a black pudding maker, and meets his cheese supplier.

General
Complete name :Rick Stein's Food Heroes Episode 4.avi
Format : AVI
Format/Info : Audio Video Interleave
File size : 235 MiB
Duration : 28mn 57s
Overall bit rate : 1 133 Kbps
Writing application : VirtualDubMod 1.5.10.2 (build 2540/release)
Writing library : VirtualDubMod build 2540/release

Video
Format : MPEG-4 Visual
Format profile : Streaming [email protected]
Format settings, BVOP : Yes
Format settings, QPel : No
Format settings, GMC : No warppoints
Format settings, Matrix : Default
Muxing mode : Packed bitstream
Codec ID : XVID
Codec ID/Hint : XviD
Duration : 28mn 57s
Bit rate : 994 Kbps
Width : 608 pixels
Height : 336 pixels
Display aspect ratio : 16/9
Frame rate : 25.000 fps
Resolution : 24 bits
Colorimetry : 4:2:0
Scan type : Progressive
Bits/(Pixel*Frame) : 0.195
Stream size : 206 MiB (88%)
Writing library : XviD 1.1.2 (UTC 2006-11-01)

Audio
Format : MPEG Audio
Format version : Version 1
Format profile : Layer 3
Codec ID : 55
Codec ID/Hint : MP3
Duration : 28mn 57s
Bit rate mode : Variable
Bit rate : 126 Kbps
Nominal bit rate : 128 Kbps
Channel(s) : 2 channels
Sampling rate : 48.0 KHz
Resolution : 16 bits
Stream size : 26.1 MiB (11%)
Alignment : Aligned on interleaves
Interleave, duration : 24 ms (0.60 video frame)
Interleave, preload duration : 490 ms
Writing library : LAME3.90.
Encoding settings : ABR


===============================

Some of the other rather spiffing shows available now and always if you signup free @ www.TheBox.bz:

Comedy: The Office, Peep Show, Coupling, Chef, Fawlty Towers, Only Fools and Horses, The IT Crowd, Brass Eye, Nathan Barley, Young Ones, Monty Python, Blackadder, Alan Partridge, Father Ted, Coupling, Little Britain, Mr Bean, Extras, Green Wing, Mighty Boosh

Drama: Casualty, Holby City, The Bill, Hustle, Skins, Shameless, Ashes To Ashes

Entertainment: Faking It, Derren Brown, Scrapheap Challenge, Strictly Come Dancing, Wife Swap

Game/Quiz Shows: Whose Line Is It Anyway?, Have I Got News For You, Deal Or No Deal (UK), Q.I.

Education/Documentary: Planet Earth, Horizon, Panorama, Mark Thomas (Comedy) Product

Food: Hell's Kitchen, Jamie Oliver, The F Word, Kitchen Nightmares, Masterchef, Great British Menu, Gordon Ramsay's Cookalong

Home/Property/Garden: Property Ladder, How Clean Is Your House?, Changing Rooms, Grand Designs, Homes Under The Hammer, To Buy Or Not To Buy

Motoring: Top Gear, Fifth Gear

Music: Top Of The Pops, Jools Holland, Glastonbury

Reality: Big Brother, Celebrity Big Brother, I'm a Celebrity - Get Me Out of Here!, Any Dream Will Do, Grease, Pop Idol, Wife Swap, X Factor, Badger Or Bust, Apprentice UK, Dragons' Den, Britain's Got Talent

Sci-Fi: Doctor Who, Red Dwarf, Torchwood, Primeval

Sport: Football (Soccer), Cricket, Rugby, Snooker, Darts, Formula One (F1GP)

Soaps: Eastenders, Coronation Street, Emmerdale, Neighbours, Hollyoaks

Style/Fashion: What Not To Wear, Project Catwalk

Kids: Teletubbies, Blue Peter, Tikkabilla, Andy Pandy, Postman Pat, Shoebox Zoo, Brum, Bob The Builder, Young Dracula, Sarah Jane Adventures, Shaun The Sheep

related torrents

Torrent name

health leech seeds Size
 


comments (0)

Main Menu