UK

Rick Stein's Food Heroes S01E03 (2002) [TVRip (DivX)]

  • Download 5x Faster
  • Download torrent
  • Direct Download
  • Rate this torrent +  |  -
Rick Stein's Food Heroes S01E03 (2002) [TVRip (DivX)]

Free and Direct Download with Usenet.nl 300GB+ free


Torrent info

Name:Rick Stein's Food Heroes S01E03 (2002) [TVRip (DivX)]

Total Size: 285.22 MB

Magnet: Magnet Link

Seeds: 0

Leechers: 0

Stream: Watch Online @ Movie4u

Last Updated: 2015-02-20 18:54:17 (Update Now)

Torrent added: 2009-09-07 22:17:20





Torrent Files List


Rick Stein's Food Heroes Episode 3.avi (Size: 285.22 MB) (Files: 1)

 Rick Stein's Food Heroes Episode 3.avi

285.22 MB
 

tracker

leech seeds
 

Torrent description

This torrent was uploaded from www.TheBox.bz (signup is open and free) - the home of all British TV

Rick Stein's - Food Heroes [2002]

Series Synopsis: Rick Stein takes his viewers on a gastronomic tour of the British countryside. Travelling through the often bleak and rambling countryside from Land’s End to John O’Groats, the intrepid chef tracks down a vast array of traditional and local culinary delights along the way. Think of the various dishes as signposts marking Stein’s route northwards. From Cornish crab and cream soup to Hollygog pudding from Oxfordshire, from the secret of Worcestershire Sauce to Welsh lamb with honey and rosemary, the variety of dishes he brings to the screen is enormous. Stein also meets cheese makers, ham curers, brewers, asparagus growers and pie makers - the unsung heroes of this land.

Rick investigates London's Borough market, samples Eel Pie, visits a free-range goose farm in Leicester, and had a pint or two at a brewery in Scotland.


General
Complete name : Rick Stein's Food Heroes Episode 3.avi
Format : AVI
Format/Info : Audio Video Interleave
File size : 285 MiB
Duration : 22mn 34s
Overall bit rate : 1 767 Kbps

Video
Format : MPEG-4 Visual
Format settings, BVOP : Yes
Format settings, QPel : No
Format settings, GMC : No warppoints
Format settings, Matrix : Default
Codec ID : DIVX
Codec ID/Info : Project Mayo
Codec ID/Hint : DivX 4
Duration : 22mn 34s
Bit rate : 1 500 Kbps
Width : 512 pixels
Height : 384 pixels
Display aspect ratio : 4/3
Frame rate : 25.000 fps
Resolution : 24 bits
Scan type : Progressive
Bits/(Pixel*Frame) : 0.305
Stream size : 242 MiB (85%)

Audio
Format : ADPCM
Codec ID : 11
Codec ID/Info : Intel ADPCM
Bit rate mode : Constant
Bit rate : 256 Kbps
Channel(s) : 2 channels
Sampling rate : 32.0 KHz
Resolution : 4 bits
Stream size : 41.6 MiB (15%)
Interleave, duration : 40 ms (1.00 video frame)

===============================

Some of the other rather spiffing shows available now and always if you signup free @ www.TheBox.bz:

Comedy: The Office, Peep Show, Coupling, Chef, Fawlty Towers, Only Fools and Horses, The IT Crowd, Brass Eye, Nathan Barley, Young Ones, Monty Python, Blackadder, Alan Partridge, Father Ted, Coupling, Little Britain, Mr Bean, Extras, Green Wing, Mighty Boosh

Drama: Casualty, Holby City, The Bill, Hustle, Skins, Shameless, Ashes To Ashes

Entertainment: Faking It, Derren Brown, Scrapheap Challenge, Strictly Come Dancing, Wife Swap

Game/Quiz Shows: Whose Line Is It Anyway?, Have I Got News For You, Deal Or No Deal (UK), Q.I.

Education/Documentary: Planet Earth, Horizon, Panorama, Mark Thomas (Comedy) Product

Food: Hell's Kitchen, Jamie Oliver, The F Word, Kitchen Nightmares, Masterchef, Great British Menu, Gordon Ramsay's Cookalong

Home/Property/Garden: Property Ladder, How Clean Is Your House?, Changing Rooms, Grand Designs, Homes Under The Hammer, To Buy Or Not To Buy

Motoring: Top Gear, Fifth Gear

Music: Top Of The Pops, Jools Holland, Glastonbury

Reality: Big Brother, Celebrity Big Brother, I'm a Celebrity - Get Me Out of Here!, Any Dream Will Do, Grease, Pop Idol, Wife Swap, X Factor, Badger Or Bust, Apprentice UK, Dragons' Den, Britain's Got Talent

Sci-Fi: Doctor Who, Red Dwarf, Torchwood, Primeval

Sport: Football (Soccer), Cricket, Rugby, Snooker, Darts, Formula One (F1GP)

Soaps: Eastenders, Coronation Street, Emmerdale, Neighbours, Hollyoaks

Style/Fashion: What Not To Wear, Project Catwalk

Kids: Teletubbies, Blue Peter, Tikkabilla, Andy Pandy, Postman Pat, Shoebox Zoo, Brum, Bob The Builder, Young Dracula, Sarah Jane Adventures, Shaun The Sheep

related torrents

Torrent name

health leech seeds Size
 

comments (0)

Main Menu