Action

IMDb Top Movies Pack 6 10

  • Download 5x Faster
  • Download torrent
  • Direct Download
  • Rate this torrent +  |  -
IMDb Top Movies Pack 6 10

Anonymous and Direct Download 300GB+ free


Torrent info

Name:IMDb Top Movies Pack 6 10

Total Size: 43.99 GB

Magnet: Magnet Link

Seeds: 0

Leechers: 0

Stream: Watch Online @ Movie4u

Last Updated: 2014-12-17 23:02:42 (Update Now)

Torrent added: 2009-09-07 22:17:15




Torrent Files List


12.Angry Men.ROCKSTAR283 (Size: 43.99 GB) (Files: 36)

 12.Angry Men.ROCKSTAR283

  12.Angry Men.ROCKSTAR283.mkv

4.37 GB

 One.Flew.Over.The.Cuckoo's.Nest.1080p.BluRay.x264-Grond

  One.Flew.Over.The.Cuckoo's.Nest.1080p.BluRay.x264-Grond.mkv

7.73 GB

 Schindlers List 1993 720p HD-TV DTS x264-DON

  sample

   SAMPLE.Schindlers.List.1993.720p.HDTV.DTS.x264-DON.mkv

50.19 MB

  1.png

508.22 KB

  2.png

469.09 KB

  Poster.jpg

133.30 KB

  Schindlers.List.1993.720p.HDTV.DTS.x264-DON.mkv

7.93 GB

  Schindlers.List.1993.720p.HDTV.DTS.x264-DON.nfo

5.34 KB

 Star.Wars.Episode.V.The.Empire.Strikes.Back.1980.1080p.HDTV.x264-hV

  sample

   star.wars.episode.v.the.empire.strikes.back.1980.1080p.hdtv.x264.sample-hv.mkv

65.35 MB

  Star.Wars.Episode.V.The.Empire.Strikes.Back.1980.1080p.HDTV.x264-hV.mkv

7.95 GB

  star.wars.episode.v.the.empire.strikes.back.1980.1080p.hdtv.x264-hv.nfo

0.83 KB

 The.Dark.Knight.BluRay.1080p.DTS.x264.dxva-EuReKA

  1. Sample

   The.Dark.Knight.2008.BluRay.1080p.DTS.x264.dxva-EuReKA.mkv

86.57 MB

  2. Pictures

   103913 encode.png

1.75 MB

   103913 source.png

1.76 MB

   113460 encode.png

1.79 MB

   113460 source.png

1.89 MB

   126390 encode.png

1.64 MB

   126390 source.png

1.79 MB

   127406 encode.png

1.09 MB

   127406 source.png

1.15 MB

   162226 encode.png

2.61 MB

   162226 source.png

2.77 MB

   168569 encode.png

3.46 MB

   168569 source.png

3.51 MB

   169391 encode.png

1.54 MB

   169391 source.png

1.60 MB

   34668 encode.png

1.69 MB

   34668 source.png

1.76 MB

   48332 encode.png

1.75 MB

   48332 source.png

1.84 MB

   6797 encode.png

1.72 MB

   6797 source.png

1.85 MB

   84217 encode.png

1.64 MB

   84217 source.png

1.71 MB

  3. Movie

   The.Dark.Knight.2008.BluRay.1080p.DTS.x264.dxva-EuReKA.mkv

15.78 GB

   The.Dark.Knight.2008.BluRay.1080p.DTS.x264.dxva-EuReKA.nfo

0.57 KB
 

Announce URL:

Torrent description

The continuation of the IMDb List 1-5; http://www.hdme.eu/details.php?id=2563

6.Schindler's List (1993) DON
7.12 Angry Men (1957) ROCKSTAR283
8.One Flew Over the Cuckoo's Nest (1975) Grond
9.The Dark Knight (2008) EuReKA
10.Star Wars: Episode V - The Empire Strikes Back (1980) hV

--------------------------------------------------------------------------
Schindlers.List.1993.720p.HDTV.DTS.x264-DON Details

General
Format : Matroska
File size : 7.93 GiB
Duration : 3h 6mn
Overall bit rate : 6 073 Kbps
Encoded date : UTC 2009-04-03 21:02:55
Writing application : mkvmerge v2.5.3 ('Boogie') built on Mar 7 2009 15:00:41
Writing library : libebml v0.7.7 + libmatroska v0.8.1

Video
ID : 1
Format : AVC
Format/Info : Advanced Video Codec
Format profile : [email protected]
Format settings, CABAC : Yes
Format settings, ReFrames : 6 frames
Muxing mode : Container [email protected]
Codec ID : V_MPEG4/ISO/AVC
Duration : 3h 6mn
Bit rate : 5 197 Kbps
Nominal bit rate : 5 315 Kbps
Width : 1 280 pixels
Height : 694 pixels
Display aspect ratio : 16/9
Frame rate : 25.000 fps
Resolution : 24 bits
Colorimetry : 4:2:0
Scan type : Progressive
Bits/(Pixel*Frame) : 0.234
Stream size : 6.78 GiB (86%)
Title : Schindler's List (1993)
Writing library : x264 core 67 r1129M c109c8e
Encoding settings : cabac=1 / ref=6 / deblock=1:-2:-1 / analyse=0x3:0x133 / me=umh / subme=9 / psy_rd=1.2:0.0 / mixed_ref=1 / me_range=32 / chroma_me=1 / trellis=0 / 8x8dct=1 / cqm=2 / deadzone=8,8 / chroma_qp_offset=-2 / threads=6 / nr=0 / decimate=1 / mbaff=0 / bframes=16 / b_pyramid=0 / b_adapt=1 / b_bias=0 / direct=1 / wpredb=1 / keyint=250 / keyint_min=25 / scenecut=40 / rc=2pass / bitrate=5315 / ratetol=1.0 / qcomp=0.60 / qpmin=10 / qpmax=51 / qpstep=4 / cplxblur=20.0 / qblur=0.5 / ip_ratio=1.40 / pb_ratio=1.30 / aq=1:0.70
Language : English

Audio
ID : 2
Format : DTS
Format/Info : Digital Theater Systems
Codec ID : A_DTS
Duration : 3h 6mn
Bit rate mode : Constant
Bit rate : 755 Kbps
Channel(s) : 6 channels
Channel positions : Front: L C R, Surround: L R, LFE
Sampling rate : 48.0 KHz
Resolution : 16 bits
Stream size : 1 009 MiB (12%)
Title : DTS 5.1 768kbps
Language : English

Text
ID : 3
Format : UTF-8
Codec ID : S_TEXT/UTF8
Codec ID/Info : UTF-8 Plain Text
Language : English

-------------------------------------------------------------------------------------
12.Angry Men.ROCKSTAR283 Details

General
Format : Matroska
File size : 4.37 GiB
Duration : 1h 36mn
Overall bit rate : 6 504 Kbps
Movie name : 12.Angry.Men.1957.720p.HDTV.x264-HDL
Encoded date : UTC 2009-05-27 13:40:24
Writing application : mkvmerge v2.8.0 ('The Tree') built on May 9 2009 18:02:06
Writing library : libebml v0.7.7 + libmatroska v0.8.1

Video
ID : 1
Format : AVC
Format/Info : Advanced Video Codec
Format profile : [email protected]
Format settings, CABAC : Yes
Format settings, ReFrames : 3 frames
Muxing mode : Container [email protected]
Codec ID : V_MPEG4/ISO/AVC
Duration : 1h 36mn
Bit rate : 5 990 Kbps
Nominal bit rate : 6 120 Kbps
Width : 1 200 pixels
Height : 720 pixels
Display aspect ratio : 1.667
Frame rate : 23.976 fps
Resolution : 24 bits
Colorimetry : 4:2:0
Scan type : Progressive
Bits/(Pixel*Frame) : 0.289
Stream size : 4.02 GiB (92%)
Title : Release for HDCLUB
Writing library : x264 core 67 r1153M 7b6ce6a
Encoding settings : cabac=1 / ref=3 / deblock=1:0:0 / analyse=0x3:0x113 / me=umh / subme=7 / psy_rd=1.0:0.0 / mixed_ref=1 / me_range=16 / chroma_me=1 / trellis=0 / 8x8dct=1 / cqm=0 / deadzone=21,11 / chroma_qp_offset=-2 / threads=6 / nr=0 / decimate=1 / mbaff=0 / bframes=3 / b_pyramid=0 / b_adapt=1 / b_bias=0 / direct=3 / wpredb=1 / keyint=24 / keyint_min=1 / scenecut=40 / rc=2pass / bitrate=6120 / ratetol=1.0 / qcomp=0.50 / qpmin=10 / qpmax=51 / qpstep=4 / cplxblur=20.0 / qblur=0.5 / vbv_maxrate=38000 / vbv_bufsize=30000 / ip_ratio=1.10 / pb_ratio=1.10 / aq=1:1.00
Language : English

Audio
ID : 2
Format : AC-3
Format/Info : Audio Coding 3
Format profile : Dolby Digital
Codec ID : A_AC3
Duration : 1h 36mn
Bit rate mode : Constant
Bit rate : 384 Kbps
Channel(s) : 2 channels
Channel positions : L R
Sampling rate : 48.0 KHz
Video delay : 32ms
Stream size : 264 MiB (6%)
Title : AC3 2.0 @ 384 kbps
Language : English

Text
ID : 3
Format : UTF-8
Codec ID : S_TEXT/UTF8
Codec ID/Info : UTF-8 Plain Text
Language : English

----------------------------------------------------------------------------------------
One.Flew.Over.The.Cuckoo's.Nest.1080p.BluRay.x264-Grond Details

General
Format : Matroska
File size : 7.73 GiB
Duration : 2h 13mn
Overall bit rate : 8 272 Kbps
Encoded date : UTC 2008-10-17 11:19:35
Writing application : mkvmerge v2.3.0 ('Freak U') built on Sep 8 2008 18:32:16
Writing library : libebml v0.7.7 + libmatroska v0.8.1

Video
ID : 1
Format : AVC
Format/Info : Advanced Video Codec
Format profile : [email protected]
Format settings, CABAC : Yes
Format settings, ReFrames : 4 frames
Muxing mode : Container [email protected]
Codec ID : V_MPEG4/ISO/AVC
Duration : 2h 13mn
Bit rate : 7 467 Kbps
Nominal bit rate : 7 672 Kbps
Width : 1 920 pixels
Height : 1 080 pixels
Display aspect ratio : 16/9
Frame rate : 23.976 fps
Resolution : 24 bits
Colorimetry : 4:2:0
Scan type : Progressive
Bits/(Pixel*Frame) : 0.150
Stream size : 6.97 GiB (90%)
Writing library : x264 core 65 r998M 6768543
Encoding settings : cabac=1 / ref=4 / deblock=1:-2:-2 / analyse=0x3:0x113 / me=umh / subme=7 / psy_rd=1.0:0.0 / mixed_ref=1 / me_range=16 / chroma_me=1 / trellis=2 / 8x8dct=1 / cqm=0 / deadzone=21,11 / chroma_qp_offset=-2 / threads=3 / nr=0 / decimate=0 / mbaff=0 / bframes=3 / b_pyramid=1 / b_adapt=1 / b_bias=0 / direct=3 / wpredb=1 / keyint=250 / keyint_min=25 / scenecut=40(pre) / rc=cbr / bitrate=7672 / ratetol=2.0 / qcomp=0.60 / qpmin=10 / qpmax=51 / qpstep=4 / vbv_maxrate=38000 / vbv_bufsize=30000 / ip_ratio=1.40 / pb_ratio=1.30 / aq=1:1.00
Language : English

Audio
ID : 2
Format : AC-3
Format/Info : Audio Coding 3
Codec ID : A_AC3
Duration : 2h 13mn
Bit rate mode : Constant
Bit rate : 640 Kbps
Channel(s) : 6 channels
Channel positions : Front: L C R, Surround: L R, LFE
Sampling rate : 48.0 KHz
Stream size : 612 MiB (8%)
Language : English

--------------------------------------------------------------------------------------------
The.Dark.Knight.BluRay.1080p.DTS.x264.dxva-EuReKA Details

General
Format : Matroska
File size : 15.8 GiB
Duration : 2h 32mn
Overall bit rate : 14.8 Mbps
Encoded date : UTC 2008-11-26 10:52:36
Writing application : mkvmerge v2.4.0 ('Fumbling Towards Ecstasy') built on Oct 11 2008 20:13:15
Writing library : libebml v0.7.7 + libmatroska v0.8.1

Video
ID : 1
Format : AVC
Format/Info : Advanced Video Codec
Format profile : [email protected]
Format settings, CABAC : Yes
Format settings, ReFrames : 4 frames
Muxing mode : Container [email protected]
Codec ID : V_MPEG4/ISO/AVC
Duration : 2h 32mn
Bit rate : 13.0 Mbps
Width : 1 920 pixels
Height : 1 080 pixels
Display aspect ratio : 16/9
Frame rate : 23.976 fps
Resolution : 24 bits
Colorimetry : 4:2:0
Scan type : Progressive
Bits/(Pixel*Frame) : 0.262
Stream size : 13.8 GiB (88%)
Title : x264 - crf encode
Writing library : x264 core 65 r1028M 83baa7f
Encoding settings : cabac=1 / ref=4 / deblock=1:-3:-3 / analyse=0x3:0x113 / me=umh / subme=9 / psy_rd=1.1:0.0 / mixed_ref=1 / me_range=24 / chroma_me=1 / trellis=2 / 8x8dct=1 / cqm=0 / deadzone=21,11 / chroma_qp_offset=-2 / threads=6 / nr=0 / decimate=0 / mbaff=0 / bframes=5 / b_pyramid=1 / b_adapt=2 / b_bias=0 / direct=3 / wpredb=1 / keyint=250 / keyint_min=25 / scenecut=40(pre) / rc=crf / crf=20.0 / qcomp=0.60 / qpmin=10 / qpmax=51 / qpstep=4 / vbv_maxrate=38000 / vbv_bufsize=30000 / ip_ratio=1.40 / pb_ratio=1.30 / aq=1:1.00
Language : English

Audio
ID : 2
Format : DTS
Format/Info : Digital Theater Systems
Codec ID : A_DTS
Duration : 2h 32mn
Bit rate mode : Constant
Bit rate : 1 510 Kbps
Channel(s) : 6 channels
Channel positions : Front: L C R, Surround: L R, LFE
Sampling rate : 48.0 KHz
Resolution : 24 bits
Stream size : 1.61 GiB (10%)
Title : DTS - 1536 kbit/sec
Language : English

Text #1
ID : 3
Format : UTF-8
Codec ID : S_TEXT/UTF8
Codec ID/Info : UTF-8 Plain Text
Language : English

Text #2
ID : 4
Format : UTF-8
Codec ID : S_TEXT/UTF8
Codec ID/Info : UTF-8 Plain Text
Language : Dutch

---------------------------------------------------------------------------------------
Star.Wars.Episode.V.The.Empire.Strikes.Back.1980.1080p.HDTV.x264-hV Details

General
Format : Matroska
File size : 7.95 GiB
Duration : 2h 2mn
Overall bit rate : 9 316 Kbps
Encoded date : UTC 2007-09-01 11:18:20
Writing application : mkvmerge v2.0.2 ('You're My Flame') built on Feb 21 2007 23:40:55
Writing library : libebml v0.7.7 + libmatroska v0.8.1

Video
ID : 2
Format : AVC
Format/Info : Advanced Video Codec
Format profile : [email protected]
Format settings, CABAC : Yes
Format settings, ReFrames : 8 frames
Muxing mode : Container [email protected]
Codec ID : V_MPEG4/ISO/AVC
Duration : 2h 2mn
Bit rate : 8 745 Kbps
Nominal bit rate : 8 929 Kbps
Width : 1 920 pixels
Height : 816 pixels
Display aspect ratio : 2.35
Frame rate : 25.000 fps
Resolution : 24 bits
Colorimetry : 4:2:0
Scan type : Progressive
Bits/(Pixel*Frame) : 0.223
Stream size : 7.46 GiB (94%)
Writing library : x264 core 56 svn-667C
Encoding settings : cabac=1 / ref=5 / deblock=1:-4:-4 / analyse=0x3:0x133 / me=umh / subme=6 / brdo=1 / mixed_ref=1 / me_range=16 / chroma_me=1 / trellis=1 / 8x8dct=1 / cqm=2 / deadzone=4,6 / chroma_qp_offset=0 / threads=3 / nr=0 / decimate=1 / mbaff=0 / bframes=3 / b_pyramid=1 / b_adapt=1 / b_bias=0 / direct=3 / wpredb=1 / bime=1 / keyint=250 / keyint_min=25 / scenecut=40(pre) / rc=2pass / bitrate=8929 / ratetol=1.0 / rceq='blurCplx^(1-qComp)' / qcomp=0.60 / qpmin=10 / qpmax=51 / qpstep=4 / cplxblur=20.0 / qblur=0.5 / ip_ratio=1.40 / pb_ratio=1.30 / zones=175346,183159,b=0.15 / aq=1:0.3:15.0
Language : English

Audio
ID : 3
Format : AC-3
Format/Info : Audio Coding 3
Codec ID : A_AC3
Duration : 2h 2mn
Bit rate mode : Constant
Bit rate : 384 Kbps
Channel(s) : 6 channels
Channel positions : Front: L C R, Surround: L R, LFE
Sampling rate : 48.0 KHz
Stream size : 335 MiB (4%)
Language : English

Text
ID : 1
Format : UTF-8
Codec ID : S_TEXT/UTF8
Codec ID/Info : UTF-8 Plain Text
Language : English

related torrents

Torrent name

health leech seeds Size
 


comments (0)

Main Menu