UK

Revista de la Liga Sky Sport Spanish Football Magazine (1st September 2009) [PDTV (XViD)]

  • Download 5x Faster
  • Download torrent
  • Direct Download
  • Rate this torrent +  |  -

Torrent info

Name:Revista de la Liga Sky Sport Spanish Football Magazine (1st September 2009) [PDTV (XViD)]

Total Size: 350.43 MB

Magnet: Magnet Link

Seeds: 23

Leechers: 0

Stream: Watch Online @ Movie4u

Last Updated: 2010-03-24 05:21:09 (Update Now)

Torrent added: 2009-09-07 22:05:11




Torrent Files List


433-revista.de.la.liga.090901.ws.pdtv.xvid.avi (Size: 350.43 MB) (Files: 2)

 433-revista.de.la.liga.090901.ws.pdtv.xvid.avi

350.42 MB

 433-revista.de.la.liga.090901.ws.pdtv.xvid.nfo

17.79 KB
 

Announce URL: http://www.thebox.bz:2710/00000000000000000000000000000000/announce

Torrent description

This torrent was uploaded from www.TheBox.bz (signup is open and free) - the home of all British TV

Revista de la Liga   Sky Sport Spanish Football Magazine (1st September 2009) [PDTV (XViD)] preview 0
Revista de la Liga   Sky Sport Spanish Football Magazine (1st September 2009) [PDTV (XViD)] preview 1
Station: British Forces Broadcasting Services BFBS


SPORT: Revista de la Liga
On: Sky Sports 1
Date: Tuesday 1st September 2009 (Already shown)
Time: 18:30 to 19:30 (1 hour long)

Mark Bolton is joined by Guillem Balague to round up all the action from the opening week of fixtures in La Liga. Matches include Barcelona v Sporting Gijon.
(Dolby Stereo, Widescreen)
~~~~~~~~~~~~~~~~~~~~~~~~~~~~~~~~~~~~~~~~~~~~~~~~~~~~~~~~
Marked By: 'Popular Sports' and 'Category: Sport' markers
~~~~~~~~~~~~~~~~~~~~~~~~~~~~~~~~~~~~~~~~~~~~~~~~~~~~~~~~
Excerpt taken from DigiGuide - the world's best TV guide available from http://www.getdigiguide.com/

Copyright (c) GipsyMedia Limited.


Tech Specs:

Complete name : 433-revista.de.la.liga.090901.ws.pdtv.xvid.avi
Format : AVI
Format/Info : Audio Video Interleave
File size : 350 MiB
Duration : 46mn 35s
Overall bit rate : 1 051 Kbps
Writing application : VirtualDubMod 1.5.10.2 (build 2540/release)
Writing library : VirtualDubMod build 2540/release

Video
Format : MPEG-4 Visual
Format profile : Streaming Video@L1
Format settings, BVOP : Yes
Format settings, QPel : No
Format settings, GMC : No warppoints
Format settings, Matrix : Default (H.263)
Codec ID : XVID
Codec ID/Hint : XviD
Duration : 46mn 35s
Bit rate : 905 Kbps
Width : 624 pixels
Height : 352 pixels
Display aspect ratio : 16/9
Frame rate : 25.000 fps
Resolution : 24 bits
Colorimetry : 4:2:0
Scan type : Progressive
Bits/(Pixel*Frame) : 0.165
Stream size : 302 MiB (86%)
Writing library : XviD 1.2.0.dev47 (UTC 2006-11-01)

Audio
Format : MPEG Audio
Format version : Version 1
Format profile : Layer 3
Codec ID : 55
Codec ID/Hint : MP3
Duration : 46mn 35s
Bit rate mode : Variable
Bit rate : 133 Kbps
Nominal bit rate : 128 Kbps
Channel(s) : 2 channels
Sampling rate : 48.0 KHz
Resolution : 16 bits
Stream size : 44.4 MiB (13%)
Alignment : Aligned on interleaves
Interleave, duration : 24 ms (0.60 video frame)
Interleave, preload duration : 428 ms
Writing library : LAME3.90.
Encoding settings : -m j -V 4 -q 2 -lowpass 17.6 --abr 128

===============================

Some of the other rather spiffing shows available now and always if you signup free @ www.TheBox.bz:

Comedy: The Office, Peep Show, Coupling, Chef, Fawlty Towers, Only Fools and Horses, The IT Crowd, Brass Eye, Nathan Barley, Young Ones, Monty Python, Blackadder, Alan Partridge, Father Ted, Coupling, Little Britain, Mr Bean, Extras, Green Wing, Mighty Boosh

Drama: Casualty, Holby City, The Bill, Hustle, Skins, Shameless, Ashes To Ashes

Entertainment: Faking It, Derren Brown, Scrapheap Challenge, Strictly Come Dancing, Wife Swap

Game/Quiz Shows: Whose Line Is It Anyway?, Have I Got News For You, Deal Or No Deal (UK), Q.I.

Education/Documentary: Planet Earth, Horizon, Panorama, Mark Thomas (Comedy) Product

Food: Hell's Kitchen, Jamie Oliver, The F Word, Kitchen Nightmares, Masterchef, Great British Menu, Gordon Ramsay's Cookalong

Home/Property/Garden: Property Ladder, How Clean Is Your House?, Changing Rooms, Grand Designs, Homes Under The Hammer, To Buy Or Not To Buy

Motoring: Top Gear, Fifth Gear

Music: Top Of The Pops, Jools Holland, Glastonbury

Reality: Big Brother, Celebrity Big Brother, I'm a Celebrity - Get Me Out of Here!, Any Dream Will Do, Grease, Pop Idol, Wife Swap, X Factor, Badger Or Bust, Apprentice UK, Dragons' Den, Britain's Got Talent

Sci-Fi: Doctor Who, Red Dwarf, Torchwood, Primeval

Sport: Football (Soccer), Cricket, Rugby, Snooker, Darts, Formula One (F1GP)

Soaps: Eastenders, Coronation Street, Emmerdale, Neighbours, Hollyoaks

Style/Fashion: What Not To Wear, Project Catwalk

Kids: Teletubbies, Blue Peter, Tikkabilla, Andy Pandy, Postman Pat, Shoebox Zoo, Brum, Bob The Builder, Young Dracula, Sarah Jane Adventures, Shaun The Sheep

related torrents

Torrent name

health leech seeds Size
 

comments (0)

Main Menu