TV - Other

Dirty Sexy Money Saison2 complete fr ( Net)

  • Download 5x Faster
  • Download torrent
  • Direct Download
  • Rate this torrent +  |  -
Dirty Sexy Money Saison2 complete fr ( Net)

Anonymous and Direct Download 300GB+ free


Torrent info

Name:Dirty Sexy Money Saison2 complete fr ( Net)

Total Size: 4.54 GB

Magnet: Magnet Link

Seeds: 0

Leechers: 0

Stream: Watch Online @ Movie4u

Last Updated: 0000-00-00 00:00:00 (Update Now)

Torrent added: 2009-09-07 22:01:13




Torrent Files List


Dirty.Sexy.Money.S02.E12.avi (Size: 4.54 GB) (Files: 14)

 Dirty.Sexy.Money.S02.E12.avi

360.19 MB

 Dirty.Sexy.Money.S02.E08.avi

360.05 MB

 Dirty.Sexy.Money.S02.E03.avi

358.65 MB

 Dirty.Sexy.Money.S02.E10.avi

358.44 MB

 Dirty.Sexy.Money.S02.E02.avi

358.16 MB

 Dirty.Sexy.Money.S02.E04.avi

358.16 MB

 Dirty.Sexy.Money.S02.E06.avi

357.65 MB

 Dirty.Sexy.Money.S02.E07.avi

357.34 MB

 Dirty.Sexy.Money.S02.E09.avi

357.20 MB

 Dirty.Sexy.Money.S02.E01.avi

357.12 MB

 Dirty.Sexy.Money.S02.E13.avi

356.84 MB

 Dirty.Sexy.Money.S02.E11.avi

356.81 MB

 Dirty.Sexy.Money.S02.E05.avi

356.10 MB

 DSM 2.nfo

2.12 KB
 

Announce URL:

Torrent description

***ATTENTION***

Pour télécharger ce torrent, vous devez posséder un compte sur Quebec-Team ! et ensuite entrez votre passkey manuellement (http://www.quebec-team.net/announce.php?passkeyici) OU re-télécharger le torrent via le site. Merci!

***ATTENTION***

Lien d'origine : http://www.quebec-team.net/torrents/Serie-TV---FR/torrent/Dirty-Sexy-Money-Saison2-complete-fr.html

[aligner=centre][couleur=red]Dirty Sexy Money - AlloCiné[/couleur][/aligner]

[aligner=centre]Dirty Sexy Money Saison2 complete fr ( Net) preview 0[/aligner]

[aligner=centre]Dirty Sexy Money Saison2 complete fr ( Net) preview 1[/aligner]

[aligner=centre]Origine de la serie : : Américaine[/aligner]
[aligner=centre]Titre original : [couleur=red]Aucune information ...[/couleur][/aligner]
[aligner=centre]Saison : 2 [/aligner]
[aligner=centre]Episodes : 23 [/aligner]
[aligner=centre]Top Série : [couleur=red]76 ème[/couleur][/aligner]
[aligner=centre]Statut : [couleur=red]arrêtée en 2008[/couleur][/aligner]
[aligner=centre]Réalisateur : Craig Wright en 2007[/aligner]
[aligner=centre]Acteurs : Peter Krause, Donald Sutherland [/aligner]
[aligner=centre]Genre : Drame[/aligner]
[aligner=centre]Durée : 42[/aligner]
[aligner=centre]Date de diffusion : : 23 Octobre 2008[/aligner]

[aligner=centre]Bande annonce : [/aligner]

[aligner=centre]Dirty Sexy Money Saison2 complete fr ( Net) preview 2[/aligner]

[aligner=centre]Les Darling sont une des familles les plus puissantes de New York. Dans la droite lignée des Kennedy, ils ont l'argent, le pouvoir, des ambitions et une fâcheuse tendance à se retrouver dans des situations impossibles, à fricoter avec des gens peu recommandables... S'ils n'avaient pas Nick George, leur avocat, pour les tirer d'affaire, pour éviter la Une des magazines trash ou, pire, la prison, leur declin aurait commencé depuis bien longtemps. Pourtant Nick, avocat idéaliste, a longtemps refusé sa destinée : servir les Darling. Avant lui, son père s'était livré corps et âme à cette famille destructrice en devenant leur conseiller. Nick ne sait pas si servir les Darling est une chance ou une sentence...[/aligner]

[aligner=centre]Dirty Sexy Money Saison2 complete fr ( Net) preview 4" border="0" alt="Dirty Sexy Money Saison2 complete fr ( Net) preview 3"/>
Dirty Sexy Money Saison2 complete fr ( Net) preview 4" border="0" alt="Dirty Sexy Money Saison2 complete fr ( Net) preview 3"/>
The Bad Guy
Saison 2 - Episode 13
The Unexpected Arrival
Saison 2 - Episode 12
The Convertible
Saison 2 - Episode 11
The Facts
Saison 2 - Episode 10
The Organ Donor
Saison 2 - Episode 9
The Summer House
Saison 2 - Episode 7




[/aligner][aligner=centre]Dirty Sexy Money Saison2 complete fr ( Net) preview 5[/aligner]


[aligner=centre]Hébergeur : Unlimited-Tracker[/aligner]

[aligner=centre]Qualité : DVDRiP[/aligner]

[aligner=centre]Format : XviD[/aligner]

[aligner=centre]Langue : Français[/aligner]

[aligner=centre]Sous-titre : Aucun[/aligner]

[aligner=centre]Découper avec : Aucun[/aligner]

[aligner=centre]Nombre de fichiers : 13 Fichiers[/aligner]

[aligner=centre]Taille des fichiers : 356 Mo[/aligner]

[aligner=centre]Taille totale : 4.54 Go[/aligner]

[aligner=centre]Dirty Sexy Money Saison2 complete fr ( Net) preview 6[/aligner]



[aligner=centre][couleur=red]Total du post: 4.54 Go[/couleur][/aligner]

[aligner=centre]Dirty Sexy Money Saison2 complete fr ( Net) preview 7[/aligner]



General
Complete name : Dirty.Sexy.Money.S02.complete.fr
Format : AVI
Format/Info : Audio Video Interleave
File size : 357 MiB
Duration : 41mn 20s
Overall bit rate : 1 208 Kbps
Writing application : MEncoder dev-SVN-r29417
Writing library : MPlayer

Video
Format : MPEG-4 Visual
Format profile : Streaming [email protected]
Format settings, BVOP : Yes
Format settings, QPel : No
Format settings, GMC : No warppoints
Format settings, Matrix : Default (H.263)
Muxing mode : Packed bitstream
Codec ID : XVID
Codec ID/Hint : XviD
Duration : 41mn 20s
Bit rate : 1 032 Kbps
Width : 624 pixels
Height : 352 pixels
Display aspect ratio : 16/9
Frame rate : 25.000 fps
Original frame rate : 23.976 fps
Resolution : 24 bits
Colorimetry : 4:2:0
Scan type : Progressive
Bits/(Pixel*Frame) : 0.188
Stream size : 305 MiB (85%)
Writing library : XviD 1.2.1 (UTC 2008-12-04)

Audio
Format : MPEG Audio
Format version : Version 1
Format profile : Layer 3
Codec ID : 55
Codec ID/Hint : MP3
Duration : 41mn 20s
Bit rate mode : Variable
Bit rate : 163 Kbps
Channel(s) : 2 channels
Sampling rate : 48.0 KHz
Resolution : 16 bits
Stream size : 48.1 MiB (13%)
Alignment : Aligned on interleaves
Interleave, duration : 24 ms (0.60 video frame)
Interleave, preload duration : 117 ms

related torrents

Torrent name

health leech seeds Size
 


comments (0)

Main Menu