UK

I'm a Celebrity, Get Me Out of Here Now! S08E01 (16th November 2008) [WS PDTV XviD]

  • Download 5x Faster
  • Download torrent
  • Direct Download
  • Rate this torrent +  |  -

Torrent info

Name:I'm a Celebrity, Get Me Out of Here Now! S08E01 (16th November 2008) [WS PDTV XviD]

Total Size: 349.33 MB

Magnet: Magnet Link

Seeds: 1

Leechers: 1

Stream: Watch Online @ Movie4u

Last Updated: 2010-07-31 05:40:18 (Update Now)

Torrent added: 2009-09-07 22:01:05



VPN For Torrents

Torrent Files List


I'm a Celebrity, Get Me Out of Here Now! - S08E01 (16th November 2008) [WS.DSR.XviD].avi (Size: 349.33 MB) (Files: 2)

 I'm a Celebrity, Get Me Out of Here Now! - S08E01 (16th November 2008) [WS.DSR.XviD].avi

349.32 MB

 I'm a Celebrity, Get Me Out of Here Now! - S08E01 (16th November 2008) [WS.DSR.XviD].txt

2.84 KB
 

Announce URL: http://www.thebox.bz:2710/00000000000000000000000000000000/announce

Torrent description

This torrent was uploaded from www.TheBox.bz (signup is open and free) - the home of all British TV

I'm a Celebrity, Get Me Out of Here Now!   S08E01 (16th November 2008) [WS PDTV XviD] preview 0

REALITY SHOW: I'm a Celebrity, Get Me Out of Here Now!
On: ITV2
Date: Sunday 16th November 2008
Time: 22:30 to 23:30 (1 hour long)

Live in Australia, Emma Willis and former King of the Jungle Matt Willis present the latest news, gossip and behind-the-scenes reports from the jungle camp. And back in the London studio, Mark Durden-Smith talks to ex jungle-dwellers, a lively audience, and the friends and families of this year's celebrities about the latest action in the camp.

Source: DVB-S

File Details:
===================================
General
Complete name : I'm a Celebrity, Get Me Out of Here Now! - S08E01 (16th November 2008) [WS.DSR.XviD].avi
Format : AVI
Format/Info : Audio Video Interleave
File size : 349 MiB
Duration : 45mn 41s
Overall bit rate : 1 069 Kbps
Writing application : VirtualDubMod 1.5.10.2 (build 2540/release)
Writing library : VirtualDubMod build 2540/release

Video
Format : MPEG-4 Visual
Format profile : Streaming [email protected]
Format settings, BVOP : Yes
Format settings, QPel : No
Format settings, GMC : No warppoints
Format settings, Matrix : Default
Muxing mode : Packed bitstream
Codec ID : XVID
Codec ID/Hint : XviD
Duration : 45mn 41s
Bit rate : 925 Kbps
Width : 624 pixels
Height : 352 pixels
Display aspect ratio : 16/9
Frame rate : 25.000 fps
Resolution : 24 bits
Colorimetry : 4:2:0
Scan type : Progressive
Bits/(Pixel*Frame) : 0.169
Stream size : 302 MiB (87%)
Writing library : XviD 1.2.0.dev47 (UTC 2006-11-01)

Audio
Format : MPEG Audio
Format version : Version 1
Format profile : Layer 3
Codec ID : 55
Codec ID/Hint : MP3
Duration : 45mn 41s
Bit rate mode : Variable
Bit rate : 131 Kbps
Nominal bit rate : 128 Kbps
Channel(s) : 2 channels
Sampling rate : 48.0 KHz
Resolution : 16 bits
Stream size : 42.7 MiB (12%)
Alignment : Aligned on interleaves
Interleave, duration : 24 ms (0.60 video frame)
Interleave, preload duration : 510 ms
Writing library : LAME3.90.
Encoding settings : ABR

===============================

Some of the other rather spiffing shows available now and always if you signup free @ www.TheBox.bz:

Comedy: The Office, Peep Show, Coupling, Chef, Fawlty Towers, Only Fools and Horses, The IT Crowd, Brass Eye, Nathan Barley, Young Ones, Monty Python, Blackadder, Alan Partridge, Father Ted, Coupling, Little Britain, Mr Bean, Extras, Green Wing, Mighty Boosh

Drama: Casualty, Holby City, The Bill, Hustle, Skins, Shameless, Ashes To Ashes

Entertainment: Faking It, Derren Brown, Scrapheap Challenge, Strictly Come Dancing, Wife Swap

Game/Quiz Shows: Whose Line Is It Anyway?, Have I Got News For You, Deal Or No Deal (UK), Q.I.

Education/Documentary: Planet Earth, Horizon, Panorama, Mark Thomas (Comedy) Product

Food: Hell's Kitchen, Jamie Oliver, The F Word, Kitchen Nightmares, Masterchef, Great British Menu, Gordon Ramsay's Cookalong

Home/Property/Garden: Property Ladder, How Clean Is Your House?, Changing Rooms, Grand Designs, Homes Under The Hammer, To Buy Or Not To Buy

Motoring: Top Gear, Fifth Gear

Music: Top Of The Pops, Jools Holland, Glastonbury

Reality: Big Brother, Celebrity Big Brother, I'm a Celebrity - Get Me Out of Here!, Any Dream Will Do, Grease, Pop Idol, Wife Swap, X Factor, Badger Or Bust, Apprentice UK, Dragons' Den, Britain's Got Talent

Sci-Fi: Doctor Who, Red Dwarf, Torchwood, Primeval

Sport: Football (Soccer), Cricket, Rugby, Snooker, Darts, Formula One (F1GP)

Soaps: Eastenders, Coronation Street, Emmerdale, Neighbours, Hollyoaks

Style/Fashion: What Not To Wear, Project Catwalk

Kids: Teletubbies, Blue Peter, Tikkabilla, Andy Pandy, Postman Pat, Shoebox Zoo, Brum, Bob The Builder, Young Dracula, Sarah Jane Adventures, Shaun The Sheep

related torrents

Torrent name

health leech seeds Size
 


comments (0)

Main Menu