Comedy

Envy DVDRiP XViD SB0 [teamfx org]

  • Download 5x Faster
  • Download torrent
  • Direct Download
  • Rate this torrent +  |  -
Envy DVDRiP XViD SB0 [teamfx org]

Free and Direct Download with Usenet.nl 300GB+ free


Torrent info

Name:Envy DVDRiP XViD SB0 [teamfx org]

Total Size: 700.25 MB

Magnet: Magnet Link

Seeds: 3

Leechers: 0

Stream: Watch Online @ Movie4u

Last Updated: 2011-01-05 00:17:30 (Update Now)

Torrent added: 2009-09-07 21:52:17





Torrent Files List


Envy DVDRiP XViD SB0.avi (Size: 700.25 MB) (Files: 2)

 Envy DVDRiP XViD SB0.avi

700.24 MB

 Envy DVDRiP XViD SB0.nfo

4.67 KB
 

Announce URL: http://teamfx.org/announce.php

Torrent description

Envy DVDRiP XViD SB0
*******************************************************************************

-------------------------------------------------------------------------------
General Information
-------------------------------------------------------------------------------
Type.................: Movie



Movie Information....: http://www.imdb.com/title/tt0326856/

-------------------------------------------------------------------------------
Post Information
-------------------------------------------------------------------------------
Posted by............: SB0

-------------------------------------------------------------------------------
Release Notes
-------------------------------------------------------------------------------
General
Complete name : Envy DVDRiP XViD SB0.avi
Format : AVI
Format/Info : Audio Video Interleave
File size : 700 MiB
Duration : 1h 35mn
Overall bit rate : 1 031 Kbps
Writing application : VirtualDubMod 1.5.4.1 (build 2178/release)
Writing library : VirtualDubMod build 2178/release

Video
Format : MPEG-4 Visual
Format profile : Streaming [email protected]
Format settings, BVOP : Yes
Format settings, QPel : No
Format settings, GMC : No warppoints
Format settings, Matrix : Custom
Codec ID : XVID
Codec ID/Hint : XviD
Duration : 1h 35mn
Bit rate : 918 Kbps
Width : 608 pixels
Height : 336 pixels
Display aspect ratio : 16/9
Frame rate : 25.000 fps
Resolution : 24 bits
Colorimetry : 4:2:0
Scan type : Progressive
Bits/(Pixel*Frame) : 0.180
Stream size : 623 MiB (89%)
Writing library : XviD 1.2.1 (UTC 2008-12-04)

Audio
Format : MPEG Audio
Format version : Version 1
Format profile : Layer 3
Codec ID : 55
Codec ID/Hint : MP3
Duration : 1h 34mn
Bit rate mode : Variable
Bit rate : 100 Kbps
Nominal bit rate : 112 Kbps
Channel(s) : 2 channels
Sampling rate : 44.1 KHz
Resolution : 16 bits
Stream size : 68.3 MiB (10%)
Alignment : Aligned on interleaves
Interleave, duration : 26 ms (0.65 video frame)
Interleave, preload duration : 190 ms
Writing library : LAME3.98r
Encoding settings : -m j -V 4 -q 2 -lowpass 15.6 --abr 112

Ben Stiller and Jack Black star as Tim and Nick, best friends, neighbors and co
-workers, whose equal footing is suddenly tripped up when one of Nick's
harebrained get-rich-quick schemes actually succeeds: Vapoorizer, a spray that
literally makes dog poop, or any other kind for that matter, evaporate into thin
air -- to where exactly is anyone's guess. Tim, who had scoffed at Nick's idea
and passed on an opportunity to get in on the deal, can only watch as Nick's
fortune -- and Tim's own envy -- grow to equally outrageous proportions. When
the flames of jealousy are fanned by an oddball drifter (Walken) who imposes
himself into the situation, Tim's life careens wildly out of control ... taking
Nick's with it.

related torrents

Torrent name

health leech seeds Size

[PT]Envy DVDRiP XViD SB0(

0 1 700.25 MB 0
 

comments (0)

Main Menu