Movies

Mai dire gf 10 e01 italian pdtv xvid foolish cr3w avi

  • Download 5x Faster
  • Download torrent
  • Direct Download
  • Rate this torrent +  |  -
Mai dire gf 10 e01 italian pdtv xvid foolish cr3w avi

Free and Direct Download with Usenet.nl 300GB+ free


Torrent info

Name:Mai dire gf 10 e01 italian pdtv xvid foolish cr3w avi

Total Size: 347.21 MB

Magnet: Magnet Link

Seeds: 0

Leechers: 0

Stream: Watch Online @ Movie4u

Last Updated: 2010-07-12 09:04:29 (Update Now)

Torrent added: 2009-11-07 17:03:42





Torrent Files List


lost.land.of.the.jaguar.s01e01.720p.hdtv.x264.mkv (Size: 4.35 GB) (Files: 3)

 lost.land.of.the.jaguar.s01e01.720p.hdtv.x264.mkv

1.43 GB

 lost.land.of.the.jaguar.s01e02.720p.hdtv.x264.mkv

1.46 GB

 lost.land.of.the.jaguar.s01e03.720p.hdtv.x264.mkv

1.46 GB
 

Announce URL: http://tracker.thepiratebay.org/announce

Torrent description

General
Complete name : Mai.Dire.GF.10.E01.iTALiAN.PDTV.XviD-Foolish.Cr3w.avi
Format : AVI
Format/Info : Audio Video Interleave
File size : 347 MiB
Duration : 38mn 50s
Overall bit rate : 1 250 Kbps
Writing application : VirtualDubMod 1.5.10.2 (build 2540/release)
Writing library : VirtualDubMod build 2540/release

Video
ID : 0
Format : MPEG-4 Visual
Format profile : [email protected]
Format settings, BVOP : Yes
Format settings, QPel : No
Format settings, GMC : No warppoints
Format settings, Matrix : Default (H.263)
Codec ID : XVID
Codec ID/Hint : XviD
Duration : 38mn 50s
Bit rate : 1 112 Kbps
Width : 640 pixels
Height : 368 pixels
Display aspect ratio : 16:9
Frame rate : 25.000 fps
Resolution : 24 bits
Colorimetry : 4:2:0
Scan type : Progressive
Bits/(Pixel*Frame) : 0.189
Stream size : 309 MiB (89%)
Writing library : XviD 1.2.1 (UTC 2008-12-04)

Audio
ID : 1
Format : MPEG Audio
Format version : Version 1
Format profile : Layer 3
Codec ID : 55
Codec ID/Hint : MP3
Duration : 38mn 49s
Bit rate mode : Constant
Bit rate : 128 Kbps
Channel(s) : 2 channels
Sampling rate : 48.0 KHz
Resolution : 16 bits
Stream size : 35.6 MiB (10%)
Alignment : Aligned on interleaves
Interleave, duration : 40 ms (1.00 video frame)
Interleave, preload duration : 504 ms

related torrents

Torrent name

health leech seeds Size
 

comments (0)

Main Menu