Movies

This is it ts xvid imagine

  • Download 5x Faster
  • Download torrent
  • Direct Download
  • Rate this torrent +  |  -
This is it ts xvid imagine

Anonymous and Free Direct Download


Torrent info

Name:This is it ts xvid imagine

Total Size: 1.38 GB

Magnet: Magnet Link

Seeds: 20

Leechers: 6

Stream: Watch Online @ Movie4u

Last Updated: 2010-11-15 09:50:18 (Update Now)

Torrent added: 2009-11-07 13:01:46



VPN For Torrents

Torrent Files List


London Ink s02e03.thebox.hannibal.avi (Size: 351.35 MB) (Files: 1)

 London Ink s02e03.thebox.hannibal.avi

351.35 MB
 

Announce URL: http://tracker.thepiratebay.org/announce

Torrent description

********************************************************************************************************************

This.is.IT.TS.XviD-IMAGiNE

********************************************************************************************************************



Ripper ...........: IMAGiNE IMDB Rating.......:7.5/10

Video Codec.......: XVID Release Date......:05/11/09

Audio Codec.......:AC3 Theatre Date......:28/10/09

Audio Bitrate.....:128 Runtime.......:1h 42mn

Subtitles.........:NIL Language..........:ENGLISH

Resolution...... 704 x 384 IMDb URL..........:http://www.imdb.com/title/tt1477715/





DETAILS:



Video

ID : 0

Format : MPEG-4 Visual

Format profile : [email protected]

Format settings, BVOP : Yes

Format settings, QPel : No

Format settings, GMC : No warppoints

Format settings, Matrix : Custom

Codec ID : XVID

Codec ID/Hint : XviD

Duration : 1h 42mn

Bit rate : 1 679 Kbps

Width : 704 pixels

Height : 384 pixels

Display aspect ratio : 16:9

Frame rate : 29.970 fps

Resolution : 24 bits

Colorimetry : 4:2:0

Scan type : Progressive

Bits/(Pixel*Frame) : 0.207

Stream size : 1.20 GiB (88%)

Writing library : XviD 1.2.1 (UTC 2008-12-04)



Audio

ID : 1

Format : MPEG Audio

Format version : Version 1

Format profile : Layer 2

Codec ID : 50

Codec ID/Hint : MP1

Duration : 1h 42mn

Bit rate mode : Constant

Bit rate : 224 Kbps

Channel(s) : 2 channels

Sampling rate : 48.0 KHz

Resolution : 16 bits

Stream size : 164 MiB (12%)

Alignment : Aligned on interleaves

Interleave, duration : 67 ms (2.00 video frames)

Interleave, preload duration : 504 ms











NOTES:



IMAGiNE bringing you another release.....This Is It



Well we've gone thru and redid alot of the color settings. The picture was also corrected with out

cropping. This along with our own Home Audio and you've got a decent release.

related torrents

Torrent name

health leech seeds Size

This Is It TS XviD TimBer

0 0 699.49 MB 0
 


comments (0)

Main Menu