Movies

The Vampire's Assistant 2009 xvid r5 pricless™

  • Download 5x Faster
  • Download torrent
  • Direct Download
  • Rate this torrent +  |  -
The Vampire's Assistant 2009 xvid r5 pricless™

Anonymous and Free Direct Download 300GB+


Torrent info

Name:The Vampire's Assistant 2009 xvid r5 pricless™

Total Size: 713.02 MB

Magnet: Magnet Link

Seeds: 0

Leechers: 0

Stream: Watch Online @ Movie4u

Last Updated: 2010-12-27 01:38:01 (Update Now)

Torrent added: 2009-11-06 20:17:14



VPN For Torrents

Torrent Files List


Emmerdale 091008.thebox.hannibal.avi (Size: 180.78 MB) (Files: 1)

 Emmerdale 091008.thebox.hannibal.avi

180.78 MB
 

Announce URL: http://exodus.desync.com:6969/announce

Torrent description

Plot

A young boy named Darren Shan meets a mysterious man at a freak show
who turns out to be a Vampire. After a series of events Darren must
leave his normal life and go on the road with the Cirque Du Freak and
become a Vampire.


Cast

John C. Reilly ... Larten Crepsley

Josh Hutcherson ... Steve

Chris Massoglia ... Darren Shan

Jessica Carlson ... Rebecca

Michael Cerveris ... Mr. Tiny

Ray Stevenson ... Murlaugh

Patrick Fugit ... Evra the Snake Boy

Daniel Newman ... Pete

Morgan Saylor ... Annie

Don McManus ... Mr. Shan

Colleen Camp ... Mrs. Shan

Ken Watanabe ... Mr. Tall

Salma Hayek ... Madame Truska

Orlando Jones ... Alexander Ribs

Frankie Faison ... Rhamus Twobellies


DETAILS

Screenshots

The Vampire's Assistant 2009 xvid r5 pricless™ preview 0
The Vampire's Assistant 2009 xvid r5 pricless™ preview 1
The Vampire's Assistant 2009 xvid r5 pricless™ preview 2
The Vampire's Assistant 2009 xvid r5 pricless™ preview 3

IMDB Link..............: http://www.imdb.com/title/tt0450405/
IMDB Ratings...........: 6.6/10 958 votes
Genre..................: Action | Adventure | Comedy | Fantasy
Runtime................: 1h 43mn
Language...............: English
Format.................: Xvid | AVI
Size...................: 516.93 MB


Video
ID : 0
Format : MPEG-4 Visual
Format profile : Advanced [email protected]
Format settings, BVOP : Yes
Format settings, QPel : No
Format settings, GMC : No warppoints
Format settings, Matrix : Default (MPEG)
Muxing mode : Packed bitstream
Codec ID : XVID
Codec ID/Hint : XviD
Duration : 1h 43mn
Bit rate : 552 Kbps
Width : 704 pixels
Height : 340 pixels
Display aspect ratio : 2.540
Frame rate : 25.000 fps
Resolution : 24 bits
Colorimetry : 4:2:0
Scan type : Progressive
Bits/(Pixel*Frame) : 0.137
Stream size : 730 MiB (100%)
Writing library : XviD 1.2.1 (UTC 2008-12-04)

Audio
ID : 1
Format : MPEG Audio
Format version : Version 1
Format profile : Layer 3
Codec ID : 55
Codec ID/Hint : MP3
Duration : 1h 43mn
Bit rate mode : Variable
Bit rate : 123 Kbps
Nominal bit rate : 128 Kbps
Channel(s) : 2 channels
Sampling rate : 44.1 KHz
Resolution : 16 bits
Stream size : 91.1 MiB (18%)
Alignment : Aligned on interleaves
Interleave, duration : 26 ms (0.65 video frame)
Interleave, preload duration : 523 ms
Writing library : LAME3.92
Encoding settings : -m j -V 4 -q 2 -lowpass 17.5 --abr 128

related torrents

Torrent name

health leech seeds Size
 


comments (0)

Main Menu