Drama

Angels and Demons (2009) DVDRip XviD MAXSPEED ~RPK

  • Download 5x Faster
  • Download torrent
  • Direct Download
  • Rate this torrent +  |  -
Angels and Demons (2009) DVDRip XviD MAXSPEED ~RPK

Anonymous and Direct Download 300GB+ free


Torrent info

Name:Angels and Demons (2009) DVDRip XviD MAXSPEED ~RPK

Total Size: 702.10 MB

Magnet: Magnet Link

Seeds: 0

Leechers: 0

Stream: Watch Online @ Movie4u

Last Updated: 0000-00-00 00:00:00 (Update Now)

Torrent added: 2009-09-07 12:36:11




Torrent Files List


Angels & Demons (2009) DVDRip XviD-MAXSPEED www.torentz.3xforum.ro.avi (Size: 702.10 MB) (Files: 5)

 Angels & Demons (2009) DVDRip XviD-MAXSPEED www.torentz.3xforum.ro.avi

701.97 MB

 Angels & Demons (2009) DVDRip XviD-MAXSPEED.nfo

2.35 KB

 screencaps.jpg

134.02 KB

 Torrent downloaded from Demonoid.com.txt

0.05 KB

 tracked_by_h33t_com.txt

0.02 KB
 

Announce URL:

Torrent description

SCREENSHOTS[MUST SEE BEFORE DOWNLOADING TORRENT]



Angels and Demons (2009) DVDRip XviD MAXSPEED ~RPK preview 0.html

Angels and Demons (2009) DVDRip XviD MAXSPEED ~RPK preview 1.html

Angels and Demons (2009) DVDRip XviD MAXSPEED ~RPK preview 2.html

Angels and Demons (2009) DVDRip XviD MAXSPEED ~RPK preview 3.html


DESCRIPTION
Hyper HD Xvid
Writing library : VirtualDub build 31953/release
Original source form : MAX TORRENTZ
Copyright : SIGISMUNT

Video
Format : MPEG-4 Visual
Format profile : Streaming [email protected]
Format settings, BVOP : Yes
Format settings, QPel : No
Format settings, GMC : No warppoints
Format settings, Matrix : Default (H.263)
Muxing mode : Packed bitstream
Codec ID : XVID
Codec ID/Hint : XviD
Duration : 2h 12mn
Bit rate : 630 Kbps
Width : 640 pixels
Height : 272 pixels
Display aspect ratio : 2.35
Frame rate : 25.000 fps
Resolution : 24 bits
Colorimetry : 4:2:0
Scan type : Progressive
Bits/(Pixel*Frame) : 0.145
Stream size : 596 MiB (85%)
Writing library : XviD 1.2.1 (UTC 2008-12-04)

Audio
Format : MPEG Audio
Format version : Version 1
Format profile : Layer 3
Codec ID : 55
Codec ID/Hint : MP3
Duration : 2h 12mn
Bit rate mode : Variable
Bit rate : 99.7 Kbps
Channel(s) : 2 channels
Sampling rate : 44.1 KHz
Resolution : 16 bits
Stream size : 94.3 MiB (13%)
Alignment : Aligned on interleaves
Interleave, duration : 26 ms (0.65 video frame)
Interleave, preload duration : 393 ms


PLEASE SEED ITS MY REQUEST TO YOU FELLOWS
CREDIT TO ORIGNAL RIPPER
Dont Forget to Hit Thanks

related torrents

Torrent name

health leech seeds Size
 


comments (0)

Main Menu