Animation

Ice Age 3 Dawn Of The Dinosaurs (2009) DVDRip XviD MAXSPEED~by RPK

  • Download 5x Faster
  • Download torrent
  • Direct Download
  • Rate this torrent +  |  -
Ice Age 3 Dawn Of The Dinosaurs (2009) DVDRip XviD MAXSPEED~by RPK

Free and Direct Download with Usenet 300GB+ free


Torrent info

Name:Ice Age 3 Dawn Of The Dinosaurs (2009) DVDRip XviD MAXSPEED~by RPK

Total Size: 699.54 MB

Magnet: Magnet Link

Seeds: 3

Leechers: 0

Stream: Watch Online @ Movie4u

Last Updated: 2015-04-02 17:45:41 (Update Now)

Torrent added: 2009-09-07 12:35:02




Torrent Files List


Ice Age 3 Dawn Of The Dinosaurs (2009) DVDRip XviD-MAXSPEED www.torentz.3xforum.ro.avi (Size: 699.54 MB) (Files: 6)

 Ice Age 3 Dawn Of The Dinosaurs (2009) DVDRip XviD-MAXSPEED www.torentz.3xforum.ro.avi

699.22 MB

 screencaps.jpg

217.61 KB

 dvdcover.jpg

100.44 KB

 MAX TORRENTZ PRESENT.nfo

2.33 KB

 Torrent downloaded from Demonoid.com.txt

0.05 KB

 tracked_by_h33t_com.txt

0.02 KB
 

tracker

leech seeds
 

Torrent description

SCREENSHOTS[MUST SEE BEFORE DOWNLOADING TORRENT]


Ice Age 3 Dawn Of The Dinosaurs (2009) DVDRip XviD MAXSPEED~by RPK preview 0.html


Ice Age 3 Dawn Of The Dinosaurs (2009) DVDRip XviD MAXSPEED~by RPK preview 1.html

Ice Age 3 Dawn Of The Dinosaurs (2009) DVDRip XviD MAXSPEED~by RPK preview 2.html

Ice Age 3 Dawn Of The Dinosaurs (2009) DVDRip XviD MAXSPEED~by RPK preview 3.html

Format : AVI
Format/Info : Audio Video Interleave
File size : 699 MiB
Duration : 1h 30mn
Overall bit rate : 1 084 Kbps
Writing application : VirtualDubMod 1.5.10.2 (build 2540/release)
Writing library : VirtualDubMod build 2540/release
Original source form : MAX TORRENTZ
Copyright : SIGISMUNT

Video
Format : MPEG-4 Visual
Format profile : Streaming [email protected]
Format settings, BVOP : Yes
Format settings, QPel : No
Format settings, GMC : No warppoints
Format settings, Matrix : Default (H.263)
Codec ID : XVID
Codec ID/Hint : XviD
Duration : 1h 30mn
Bit rate : 947 Kbps
Width : 640 pixels
Height : 352 pixels
Display aspect ratio : 16/9
Frame rate : 25.000 fps
Resolution : 24 bits
Colorimetry : 4:2:0
Scan type : Progressive
Bits/(Pixel*Frame) : 0.168
Stream size : 611 MiB (87%)
Writing library : XviD 1.1.2 (UTC 2006-11-01)

Audio
Format : MPEG Audio
Format version : Version 1
Format profile : Layer 3
Codec ID : 55
Codec ID/Hint : MP3
Duration : 1h 30mn
Bit rate mode : Variable
Bit rate : 124 Kbps
Channel(s) : 2 channels
Sampling rate : 48.0 KHz
Resolution : 16 bits
Stream size : 80.3 MiB (11%)
Alignment : Aligned on interleaves
Interleave, duration : 24 ms (0.60 video frame)
Interleave, preload duration : 154 ms


PLEASE SEED ITS MY REQUEST TO YOU FELLOWS
CREDIT TO ORIGNAL RIPPER
Dont Forget to Hit Thanks

related torrents

Torrent name

health leech seeds Size
 

comments (0)

Main Menu