Sci-Fi

District 9[2009]DvDrip LW [Bit Byte]

  • Download 5x Faster
  • Download torrent
  • Direct Download
  • Rate this torrent +  |  -
District 9[2009]DvDrip LW [Bit Byte]

Free and Direct Download with Usenet.nl 300GB+ free


Torrent info

Name:District 9[2009]DvDrip LW [Bit Byte]

Total Size: 700.11 MB

Magnet: Magnet Link

Seeds: 1

Leechers: 0

Stream: Watch Online @ Movie4u

Last Updated: 2011-01-30 03:51:58 (Update Now)

Torrent added: 2009-09-07 09:35:30





Torrent Files List


Cover (Size: 700.11 MB) (Files: 6)

 Cover

  Cover.jpg

57.46 KB

 Info

  Movie Info.nfo

4.09 KB

  Movie Info.txt

2.93 KB

 Movie

  District 9[2009]DvDrip-LW.avi

700.05 MB

 Trackers

  Torrent_downloaded_from_Demonoid.com.txt

0.05 KB

  tracked_by_h33t_com.txt

0.02 KB
 

Announce URL: http://www.h33t.com:3310/announce

Torrent description

) (`-. (` .-') /` ) (`-.
( OO ). `.( OO ),' ( OO ).
(_/. \_)-.-'),-----. ,--. ,--./ .--. .-'),-----.(_/. \_)-.
`.' ( OO' .-. '| |.-') | | | ( OO' .-. ' `.' /
/Y | | | || | OO )| | | |,/ | | | | /
\_) | || || |`-' || |.'.| |_)_) | || | |
.' \_) | | | (| '---.'| | | | | | .' \_)
/ .'. `' '-' '| | | ,'. | `' '-' '/ .'.
'--' '--' `-----' `------' '--' '--' `-----''--' '--'


ßßßßßßßßßßßßßßßßßßßßßßßßßßßßßßßßßßßßßßßßßßßßßßßßßßßßßßßßßßßßßßßßßßßßßß

Û°°°°°°°°°°°°°°°°°°°°°°°°°°°Û
ÛÛ District 9[2009]DvDrip-LW ÛÛ
Û°°°°°°°°°°°°°°°°°°°°°°°°°°°Û

File Name : District 9[2009]DvDrip-LW
Type : Movie
Format : AVI
File Size : 700 MB
Duration : 01:47:43
Language : English
Source : DvD
Subtitles : None
Genre : Action | Sci-Fi
IMDB Link : http://www.imdb.com/title/tt1136608/
IMDB Rating : 8.6/10
IMDB Votes : 42,774 Votes
ÜÜÜÜÜÜÜÜÜÜÜÜÜÜÜÜÜÜÜÜÜÜÜÜÜÜÜÜÜÜÜÜÜÜÜÜÜÜÜÜÜÜÜÜÜÜÜÜÜÜÜÜÜÜÜÜÜÜÜÜÜÜÜÜÜÜÜÜÜÜ

Û°°°°°°°°°°°°°°°°°°°°°°°°Û
ÛÛ Video Info ÛÛ
Û°°°°°°°°°°°°°°°°°°°°°°°°Û

Format : MPEG-4 Visual
Format profile : Streaming [email protected]
Format settings, BVOP : Yes
Codec ID : XVID
Codec ID/Hint : XviD
Duration : 1h 47mn
Bit rate : 797 Kbps
Width : 624 pixels
Height : 336 pixels
Display aspect ratio : 1.857
Frame rate : 25.000 fps
Resolution : 24 bits
Colorimetry : 4:2:0
Scan type : Progressive
Bits/(Pixel*Frame) : 0.152
Stream size : 614 MiB (88%)
Writing library : XviD 1.2.1
ÜÜÜÜÜÜÜÜÜÜÜÜÜÜÜÜÜÜÜÜÜÜÜÜÜÜÜÜÜÜÜÜÜÜÜÜÜÜÜÜÜÜÜÜÜÜÜÜÜÜÜÜÜÜÜÜÜÜÜÜÜÜÜÜÜÜÜÜÜÜ

Û°°°°°°°°°°°°°°°°°°°°°°°°Û
ÛÛ Sound Info ÛÛ
Û°°°°°°°°°°°°°°°°°°°°°°°°Û

Format : MPEG Audio
Format version : Version 1
Format profile : Layer 3
Codec ID : 55
Codec ID/Hint : MP3
Duration : 1h 34mn
Bit rate mode : Variable
Bit rate : 161 Kbps
Nominal bit rate : 160 Kbps
Channel(s) : 2 channels
Sampling rate : 48.0 KHz
Resolution : 16 bits
Video delay : 480ms
Stream size : 109 MiB (15%)
Alignment : Split accross interleaves
Interleave, duration : 24 ms (0.58 video frame)
Interleave, preload duration : 1145 ms
Writing library : LAME3.90.
Encoding settings : ABR
ÜÜÜÜÜÜÜÜÜÜÜÜÜÜÜÜÜÜÜÜÜÜÜÜÜÜÜÜÜÜÜÜÜÜÜÜÜÜÜÜÜÜÜÜÜÜÜÜÜÜÜÜÜÜÜÜÜÜÜÜÜÜÜÜÜÜÜÜÜÜ

Û°°°°°°°°°°°°°°°°°°°°°°°°Û
ÛÛ Plot ÛÛ
Û°°°°°°°°°°°°°°°°°°°°°°°°Û

When aliens land on Earth, global business conglomerate
Multi-National United forces them into rigid containment
zones where they are compelled to labor, even as MNU
commandeers their otherworldly technology for profit.
As tensions build between human and non-human races,
a rogue agent leads a resistance movement against MNU's
ruthless consolidation of power. Neill Blomkamp directs
this cinema verité-style sci-fi thriller.

Starring: Jason Cope, Robert Hobbs

Director: Neill Blomkamp
ÜÜÜÜÜÜÜÜÜÜÜÜÜÜÜÜÜÜÜÜÜÜÜÜÜÜÜÜÜÜÜÜÜÜÜÜÜÜÜÜÜÜÜÜÜÜÜÜÜÜÜÜÜÜÜÜÜÜÜÜÜÜÜÜÜÜÜÜÜÜ

related torrents

Torrent name

health leech seeds Size
 

comments (0)

Main Menu