Action

Transformers 2 Revenge Of The Fallen(2009) dvdrip cut scenes

  • Download 5x Faster
  • Download torrent
  • Direct Download
  • Rate this torrent +  |  -
Transformers 2 Revenge Of The Fallen(2009) dvdrip cut scenes

Anonymous and Free Direct Download 300GB+


Torrent info

Name:Transformers 2 Revenge Of The Fallen(2009) dvdrip cut scenes

Total Size: 743.98 MB

Magnet: Magnet Link

Seeds: 0

Leechers: 3

Stream: Watch Online @ Movie4u

Last Updated: 0000-00-00 00:00:00 (Update Now)

Torrent added: 2009-09-07 02:36:29



VPN For Torrents

Torrent Files List


Subtitles (Size: 743.98 MB) (Files: 9)

 Subtitles

  Transformers 2 Revenge Of The Fallen(2009).dvdrip cut scenes.sub

3.49 MB

  Transformers 2 Revenge Of The Fallen(2009).dvdrip cut scenes.idx

60.24 KB

 Transformers 2 Revenge Of The Fallen(2009).dvdrip cut scenes.avi

740.20 MB

 transformers 2- screenshots2.JPG

86.14 KB

 Transformer 2- screenshots3.JPG

76.33 KB

 transformer 2- wallpaper.JPG

41.86 KB

 Transformer 2- screenshots.JPG

36.39 KB

 transformer.nfo

2.33 KB

 demonoid mel.txt

0.04 KB
 

Announce URL: http://exodus.desync.com:6969/announce

Torrent description

Transformers 2 Revenge Of The Fallen


Video
Format : MPEG-4 Visual
Format profile : [email protected]
Format settings, BVOP : No
Format settings, QPel : No
Format settings, GMC : No warppoints
Format settings, Matrix : Default (H.263)
Codec ID : XVID
Codec ID/Hint : XviD
Duration : 2h 21mn
Bit rate : 1 246 Kbps
Width : 704 pixels
Height : 304 pixels
Display aspect ratio : 2.35
Frame rate : 25.000 fps
Resolution : 24 bits
Colorimetry : 4:2:0
Scan type : Progressive
Bits/(Pixel*Frame) : 0.233
Stream size : 1.23 GiB (90%)
Writing library : XviD 1.2.0.dev47 (UTC 2006-11-01)

Audio
Format : MPEG Audio
Format version : Version 1
Format profile : Layer 3
Codec ID : 55
Codec ID/Hint : MP3
Duration : 2h 21mn
Bit rate mode : Constant
Bit rate : 128 Kbps
Channel(s) : 2 channels
Sampling rate : 48.0 KHz
Resolution : 16 bits
Stream size : 129 MiB (9%)
Alignment : Aligned on interleaves
Interleave, duration : 40 ms (1.00 video frame)
Interleave, preload duration : 504 ms
Writing library : LAME3.97
Encoding settings : -m j -V 4 -q 2 -lowpass 17 -b 128



PLOT:

The battle for Earth has ended but the battle for the universe has just begun. After returning to Cybertron, Starscream assumes command of the Decepticons, and has decided to return to Earth with force. The Autobots believing that peace was possible finds out that Megatron's dead body has been stolen from the US Military by Skorpinox and revives him using his own spark. Now Megatron is back seeking revenge and with Starscream and more Decepticon reinforcements on the way, the Autobots with reinforcements of their own, may have more to deal with then meets the eye.

related torrents

Torrent name

health leech seeds Size
 


comments (0)

Main Menu