Other

Aaina (1993)Hindi DVDRip XviD ~ Smeet

  • Download 5x Faster
  • Download torrent
  • Direct Download
  • Rate this torrent +  |  -
Aaina (1993)Hindi DVDRip XviD ~ Smeet

Free and Direct Download with Usenet.nl 300GB+ free


Torrent info

Name:Aaina (1993)Hindi DVDRip XviD ~ Smeet

Total Size: 703.97 MB

Magnet: Magnet Link

Seeds: 0

Leechers: 2

Stream: Watch Online @ Movie4u

Last Updated: 2015-05-06 18:33:04 (Update Now)

Torrent added: 2009-09-06 23:34:23





Torrent Files List


Aaina (1993)Hindi-DVDRip-XviD ~ Smeet.avi (Size: 703.97 MB) (Files: 3)

 Aaina (1993)Hindi-DVDRip-XviD ~ Smeet.avi

703.88 MB

 Aaina (1993)Hindi-DVDRip-XviD ~ Smeet.srt

84.17 KB

 smeet.nfo

6.94 KB
 

tracker

leech seeds
 

Torrent description


################## TM
##^^^^^^^^^^^^^^^^####
############## #^^^^^^^^^^^^^^^^^^^##
###### #### #########^^^^^# #^^^^^#########^^^^^#
###### ####### ###########^^^# #^^^^^^^^^^^^^#^^^^^#
####### ####### ############^^## #^^^^^^^^^^^^^#^^^^^#
################################# ############^^^###^^^^^^^^^^^^^#^^^^^#
############################################^#^^#^^^^^^^^^^^^^^^^#^^^^^#
#####################################^^^^^^^^#^^#########^^^#######^^^^#####
####################################^^^^^^^^^##^^^^^^^^^##^^#^^^^^^^^^^^^^^##
####################################^^^^^^^^^^###^^^^^^^^#^^#^^^^^^^^^^^^^^^##
######################### ##########^^^^^####^^##^^^^^^^^#^^#^^^^^^^^^^^^^^^##
####################################^########^^#^#########^^######^^^^^######
#############################################^^#^#^^^^^^^^^^^^^^^#^^^^^#
##############################################^#^#^^^^^^^^^^^^^^^#^^^^^#
##############################################^#^#^^^^^^^^^^^^^^^#^^^^^#
##################################^^^^^^^^^^#^#^^^^^^^^^^^^^^^#^^^^^#
############################################^^^#^##^^^^^^^^^^^^^^#^^^^^#
##############################################^#^^^###^^^^^^^^^^^#^^^^^#
#################################################^^^^#^^^^^^^^^^^#^^^^^#
###############################################^######^^^^^^^^^^^#^^^^^#
###################### ###### ##############^^^^^^^^^^^########^^^^^#
###################### ###### ##############^^##^^^^^^^# #^^^^^^#
###################### ###### ##################^^^^^^^# #^^^^^^#
############## ############### ######^^# ########
############## ############### ###
#############
MEANS QUALITY

=======================================================
= Aaina (1993) =
=======================================================

|##############################################################################|
| |
|GENERAL INFORMATION |
|=================== |
|Format : AVI |
|Format/Info : Audio Video Interleave |
|Format profile : OpenDML |
|File size : 704 MiB |
|Duration : 2h 11mn |
|Overall bit rate : 746 Kbps |
|Language : Hindi Source: DVD |
|SUBTITLE : English |
|GENRE : Family | Romance |
|IMDB LINK : http://www.imdb.com/title/tt0106203/ |
|IMDB RATING : 6.1/10 |
|RIPPER : SMEET |
|##############################################################################|

|##############################################################################|
| |
|Video |
|Format : MPEG-4 Visual |
|Format settings, Matrix : Custom |
|Codec ID : XVID |
|Codec ID/Hint : XviD |
|Duration : 2h 11mn |
|Width : 640 pixels |
|Height : 288 pixels |
|Display aspect ratio : 2.222 |
|Frame rate : 29.970 fps |
|Resolution : 24 bits |
|Colorimetry : 4:2:0 |
|Scan type : Progressive |
|Bits/(Pixel*Frame) : 0.118 |
|Stream size : 615 MiB (87%) |
|Writing library : XviD 1.2.1 (UTC 2008-12-04) rter. |
|##############################################################################|
|Audio |
|Format : MPEG Audio |
|Format version : Version 1 |
|Format profile : Layer 3 |
|Codec ID : 55 |
|Codec ID/Hint : MP3 |
|Duration : 2h 11mn |
|Bit rate mode : Variable |
|Bit rate : 86.1 Kbps |
|Nominal bit rate : 96.0 Kbps |
|Channel(s) : 2 channels |
|Sampling rate : 32.0 KHz |
|Resolution : 16 bits |
|Stream size : 81.3 MiB (12%) |
|Alignment : Aligned on interleaves es) |
|Interleave, duration : 36 ms (1.08 video frame) |
|Interleave, preload duration : 120 ms Kbps DELAY 0ms |
|Writing library : LAME3.98r |
|Encoding settings : -m j -V 4 -q 2 -lowpass 15.1 --abr 96 |
|##############################################################################|
www.AhaShare.Com







related torrents

Torrent name

health leech seeds Size
 

comments (0)

Main Menu