Documentary

The Betrayal [2008] DVDRip XviD VoMiT rar

  • Download 5x Faster
  • Download torrent
  • Direct Download
  • Rate this torrent +  |  -
The Betrayal [2008] DVDRip XviD VoMiT rar

Free and Direct Download with Usenet.nl 300GB+ free


Torrent info

Name:The Betrayal [2008] DVDRip XviD VoMiT rar

Total Size: 707.44 MB

Magnet: Magnet Link

Seeds: 0

Leechers: 1

Stream: Watch Online @ Movie4u

Last Updated: 2016-05-11 22:18:35 (Update Now)

Torrent added: 2009-09-06 13:34:07





Torrent Files List


The Betrayal [2008] DVDRip XviD-VoMiT.rar (Size: 707.44 MB) (Files: 1)

 The Betrayal [2008] DVDRip XviD-VoMiT.rar

707.44 MB
 

tracker

leech seeds
 

Torrent description

The Betrayal 2008 DVDRip XviD-VoMiT


General
Complete name : The.Betrayal.2008.DVDRip.XviD-VoMiT.avi
Subtitles : English hardsubbed
Audio Language : English
Format : AVI
Format/Info : Audio Video Interleave
File size : 701 MiB
Duration : 1h 36mn
Overall bit rate : 1 016 Kbps
Writing application : VirtualDubMod 1.5.10.2 (build 2540/release)
Writing library : VirtualDubMod build 2540/release

Video
Format : MPEG-4 Visual
Format profile : Streaming [email protected]
Format settings, BVOP : Yes
Format settings, QPel : No
Format settings, GMC : No warppoints
Format settings, Matrix : Default
Codec ID : XVID
Codec ID/Hint : XviD
Duration : 1h 36mn
Bit rate : 877 Kbps
Width : 640 pixels
Height : 352 pixels
Display aspect ratio : 16/9
Frame rate : 23.976 fps
Resolution : 24 bits
Colorimetry : 4:2:0
Scan type : Progressive
Bits/(Pixel*Frame) : 0.162
Stream size : 605 MiB (86%)
Writing library : XviD 1.2.1 (UTC 2008-12-04)

Audio
Format : MPEG Audio
Format version : Version 1
Format profile : Layer 3
Codec ID : 55
Codec ID/Hint : MP3
Duration : 1h 36mn
Bit rate mode : Variable
Bit rate : 127 Kbps
Nominal bit rate : 128 Kbps
Channel(s) : 2 channels
Sampling rate : 48.0 KHz
Resolution : 16 bits
Stream size : 87.4 MiB (12%)
Alignment : Aligned on interleaves
Interleave, duration : 24 ms (0.58 video frame)
Interleave, preload duration : 145 ms
Writing library : LAME3.90.
Encoding settings : ABR

related torrents

Torrent name

health leech seeds Size
 

comments (0)

Main Menu