Drama

Me And You And Everyone We Know[2005] DVDRip NeDiVx avi rar

  • Download 5x Faster
  • Download torrent
  • Direct Download
  • Rate this torrent +  |  -
Me And You And Everyone We Know[2005] DVDRip NeDiVx avi rar

Anonymous and Direct Download 300GB+ free


Torrent info

Name:Me And You And Everyone We Know[2005] DVDRip NeDiVx avi rar

Total Size: 717.11 MB

Magnet: Magnet Link

Seeds: 0

Leechers: 0

Stream: Watch Online @ Movie4u

Last Updated: 2012-06-10 04:06:44 (Update Now)

Torrent added: 2009-09-06 11:33:57




Torrent Files List


Me And You And Everyone We Know[2005] DVDRip NeDiVx.avi.rar (Size: 717.11 MB) (Files: 1)

 Me And You And Everyone We Know[2005] DVDRip NeDiVx.avi.rar

717.11 MB
 

Announce URL:

Torrent description

Me And You And Everyone We Know[2005] DVDRip NeDiVx avi


General
Complete name : Me And You And Everyone We Know[2005] DVDRip NeDiVx.avi
Format : AVI
Format/Info : Audio Video Interleave
File size : 701 MiB
Duration : 1h 31mn
Overall bit rate : 1 070 Kbps
Writing application : Nandub v1.0rc2
Writing library : Nandub build 1852/release

Video
Format : MPEG-4 Visual
Format profile : Streaming [email protected]
Format settings, BVOP : Yes
Format settings, QPel : No
Format settings, GMC : No warppoints
Format settings, Matrix : Default
Muxing mode : Packed bitstream
Codec ID : XVID
Codec ID/Hint : XviD
Duration : 1h 31mn
Bit rate : 916 Kbps
Width : 640 pixels
Height : 352 pixels
Display aspect ratio : 16/9
Frame rate : 23.976 fps
Resolution : 24 bits
Colorimetry : 4:2:0
Scan type : Progressive
Bits/(Pixel*Frame) : 0.170
Stream size : 600 MiB (86%)
Writing library : XviD 1.1.0 Beta2 (UTC 2005-04-04)

Audio
Format : MPEG Audio
Format version : Version 1
Format profile : Layer 3
Codec ID : 55
Codec ID/Hint : MP3
Duration : 1h 31mn
Bit rate mode : Variable
Bit rate : 140 Kbps
Minimum bit rate : 128 Kbps
Channel(s) : 2 channels
Sampling rate : 48.0 KHz
Resolution : 16 bits
Stream size : 92.0 MiB (13%)
Alignment : Aligned on interleaves
Interleave, duration : 24 ms (0.58 video frame)
Interleave, preload duration : 623 ms
Writing library : LAME3.96r
Encoding settings : VBR (mtrh)



related torrents

Torrent name

health leech seeds Size
 


comments (0)

Main Menu