Documentary

The Right Stuff (1983) The first astronauts (Eng+Opt MULTISUBS) Kuth

  • Download 5x Faster
  • Download torrent
  • Direct Download
  • Rate this torrent +  |  -
The Right Stuff (1983) The first astronauts (Eng+Opt MULTISUBS) Kuth

Free and Direct Download with Usenet 300GB+ free


Torrent info

Name:The Right Stuff (1983) The first astronauts (Eng+Opt MULTISUBS) Kuth

Total Size: 820.51 MB

Magnet: Magnet Link

Seeds: 1

Leechers: 0

Stream: Watch Online @ Movie4u

Last Updated: 2016-07-07 17:54:52 (Update Now)

Torrent added: 2009-09-06 02:34:18




Torrent Files List


AA-Sample (Size: 820.51 MB) (Files: 13)

 AA-Sample

  AA-Sample-The Right Stuff (1983)_Kuth.avi

17.63 MB

 Info about this release.txt

4.88 KB

 The Right Stuff (1983) The first astronauts (Opt.MULTISUBS)_Kuth.avi

794.27 MB

 ZZ-Optional subtitles

  Danish.rar

1.09 MB

  Dutch (srt format).rar

40.14 KB

  English for the hearing impaired.rar

1.21 MB

  English.rar

1.09 MB

  Finnish.rar

1.05 MB

  German.rar

1.05 MB

  Icelandic.rar

1.11 MB

  Norwegian.rar

926.29 KB

  Notes on subtitle files and burning of discs.txt

2.60 KB

  Swedish.rar

1.06 MB
 

tracker

leech seeds
 

Torrent description

The Right Stuff (1983) The first astronauts (Opt.MULTISUBS)
http://www.imdb.com/title/tt0086197/

Optional subtitles in separate idx/sub files (Work in Windows Media Player etc. - see enclosed Note):
Danish, Dutch (srt format), English, English for the hearing impaired, Finnish, German, Icelandic, Norwegian, Swedish.

Amazing story of the first astronauts who started out as test pilots in primitive rocket planes trying to break the sound barrier, up to the first manned space missions with lots of interesting historic details.

My ripping procedure has succeeded in rendering decent quality for 700 Mb rips of films up to 2.5 hours, but it gave up on this 3 hour elefant. So I had to increase the filesize to 800 Mb. Check comments on my torrent,
http://thepiratebay.org/torrent/4235467/

Widescreen DVDrip XviD 2-pass 704x384, great stereo sound AC3.
Runs well in both my standalone DivX players.

The enclosed sample shows Chuck Yeager being the first to break the sound barrier.

MediaInfo analysis:
Format/Info : Audio Video Interleave
File size : 794 MiB
Duration : 3h 4mn
Overal bit rate : 601 Kbps

Video
Format : MPEG-4 Visual
Format profile : Streaming [email protected]
Format settings, BVOP : Yes
Format settings, QPel : No
Format settings, GMC : No warppoints
Format settings, Matrix : Default
Muxing mode : Packet Bitstream
Codec ID : XVID
Codec ID/Hint : XviD
Duration : 3h 4mn
Bit rate : 463 Kbps
Width : 704 pixels
Height : 384 pixels
Display aspect ratio : 16/9
Frame rate : 25.000 fps
Resolution : 8 bits
Colorimetry : 4:2:0
Scan type : Progressive
Bits/(Pixel*Frame) : 0.069
Stream size : 612 MiB
Writing library : XviD 1.2.0.dev47 (UTC 2006-11-01)

Audio
Format : MPEG Audio
Format version : Version 1
Format profile : Layer 3
Codec ID : 55
Codec ID/Hint : MP3
Duration : 3h 4mn
Bit rate mode : Constant
Bit rate : 128 Kbps
Minimum bit rate : 128 Kbps
Channel(s) : 2 channels
Sampling rate : 48.0 KHz
Resolution : 16 bits
Stream size : 169 MiB
Writing library : LAME3.97
Encoding settings : CBR

Source: PAL retail 6.96 Giga (note that PAL/NTSC will give no problems for avi files).

Have a look at my other quality rips with optional multisubs at
http://thepiratebay.org/user/Kuthumi/

related torrents

Torrent name

health leech seeds Size
 

comments (0)

Main Menu