Funny clips

banana split sat05sep2009 PHILIPPINES tvrip (TAGALOG) [tukmol101]

  • Download 5x Faster
  • Download torrent
  • Direct Download
  • Rate this torrent +  |  -
banana split sat05sep2009 PHILIPPINES tvrip (TAGALOG) [tukmol101]

Free and Direct Download with Usenet.nl 300GB+ free


Torrent info

Name:banana split sat05sep2009 PHILIPPINES tvrip (TAGALOG) [tukmol101]

Total Size: 254.04 MB

Magnet: Magnet Link

Seeds: 0

Leechers: 1

Stream: Watch Online @ Movie4u

Last Updated: 2016-11-09 10:21:38 (Update Now)

Torrent added: 2009-09-05 20:36:03





Torrent Files List


banana split.avi (Size: 254.04 MB) (Files: 3)

 banana split.avi

246.27 MB

 banana split sample.avi

7.78 MB

 Torrent downloaded from Demonoid.com.txt

0.05 KB
 

tracker

leech seeds
 

Torrent description

with sample
check here

CHARACTERS:
Angelica Panganiban has evolved from an adorable child star to one of the most acclaimed young actresses of today. She played the kontrabida to Claudine Barretto in the teleserye Iisa Pa Lamang and is now doing a movie with Gabby Concepcion.


Princess Ryan ruled the dance floor in U Can Dance Version 2. She also starred with Cristine Reyes in Eva Fonda.

RR Enriquez rose from the ranks of the ASF Dancers to become one of the co-hosts of hit noontime variety show Wowowee.

John Prats started out as a child star in Ang TV and became one of Star Magic’s hot young leading men. He is a mainstay of ASAP, known as the Dancefloor Dynamite. John will also star in the afternoon drama Precious Hearts Romances: Bud Brothers.

Zanjoe Marudo is considered one of the hottest leading men of today. He starred with Anne Curtis in the fantaserye Dyosa and will soon play love triangle to KC Concepcion and Piolo Pascual in Lovers In Paris.

Jayson Gainza entered showbiz after becoming a runner up in the maiden season of Pinoy Big Brother. He went on to star in ABS-CBN comedy programs Aalog Alog and Parekoy. Jayson currently co-hosts the travel show Trip Na Trip.

Pokwang is of one of the most bankable female comedians in the industry. She currently co-hosts Wowowee and has just released an album under Star Records.

Pooh shot to fame because of his Manny Pacquiao impersonation. A resident stand up comic in various comedy bars, Pooh had also appeared in several ABS-CBN shows like Pangarap Na Bituin and I Love Betty La Fea.

Format : AVI
Format/Info : Audio Video Interleave
File size : 246 MiB
Duration : 31mn 13s
Overall bit rate : 1 103 Kbps
Writing application : VirtualDubMod 1.5.4.1 (build 2178/release)
Writing library : VirtualDubMod build 2178/release

Video
ID : 0
Format : MPEG-4 Visual
Format profile : [email protected]
Format settings, BVOP : Yes
Format settings, QPel : No
Format settings, GMC : No warppoints
Format settings, Matrix : Default (H.263)
Muxing mode : Packed bitstream
Codec ID : XVID
Codec ID/Hint : XviD
Duration : 31mn 13s
Bit rate : 988 Kbps
Width : 624 pixels
Height : 464 pixels
Display aspect ratio : 4:3
Frame rate : 29.970 fps
Resolution : 24 bits
Colorimetry : 4:2:0
Scan type : Progressive
Bits/(Pixel*Frame) : 0.114
Stream size : 221 MiB (90%)
Writing library : XviD 1.2.1 (UTC 2008-12-04)

Audio
ID : 1
Format : MPEG Audio
Format version : Version 1
Format profile : Layer 3
Codec ID : 55
Codec ID/Hint : MP3
Duration : 31mn 13s
Bit rate mode : Variable
Bit rate : 103 Kbps
Nominal bit rate : 128 Kbps
Channel(s) : 2 channels
Sampling rate : 32.0 KHz
Resolution : 16 bits
Stream size : 23.1 MiB (9%)
Alignment : Aligned on interleaves
Interleave, duration : 36 ms (1.08 video frame)
Interleave, preload duration : 518 ms
Writing library : LAME3.98r
Encoding settings : -m j -V 4 -q 2 -lowpass 16 --abr 128

related torrents

Torrent name

health leech seeds Size
 

comments (0)

Main Menu