Drama

Believe In Me [2006] LIMITED DVDRip XViD ALLiANCE rar

  • Download 5x Faster
  • Download torrent
  • Direct Download
  • Rate this torrent +  |  -
Believe In Me [2006] LIMITED DVDRip XViD ALLiANCE rar

Anonymous and Free Direct Download 300GB+


Torrent info

Name:Believe In Me [2006] LIMITED DVDRip XViD ALLiANCE rar

Total Size: 701.81 MB

Magnet: Magnet Link

Seeds: 4

Leechers: 3

Stream: Watch Online @ Movie4u

Last Updated: 2011-01-04 13:29:12 (Update Now)

Torrent added: 2009-09-05 16:12:32



VPN For Torrents

Torrent Files List


Believe In Me [2006] LIMITED DVDRip XViD-ALLiANCE.rar (Size: 701.81 MB) (Files: 1)

 Believe In Me [2006] LIMITED DVDRip XViD-ALLiANCE.rar

701.81 MB
 

Announce URL: http://genesis.1337x.org:1337/announce

Torrent description

Believe In Me [2006] LIMITED DVDRip XViD-ALLiANCE



General
Complete name : Believe In Me [2006] LIMITED DVDRip XViD-ALLiANCE.avi
Format : AVI
Format/Info : Audio Video Interleave
File size : 699 MiB
Duration : 1h 48mn
Overall bit rate : 898 Kbps
Writing application : Nandub v1.0rc2
Writing library : Nandub build 1853/release

Video
Format : MPEG-4 Visual
Format settings, BVOP : Yes
Format settings, QPel : No
Format settings, GMC : No warppoints
Format settings, Matrix : Default
Codec ID : XVID
Codec ID/Hint : XviD
Duration : 1h 48mn
Bit rate : 740 Kbps
Width : 576 pixels
Height : 432 pixels
Display aspect ratio : 4/3
Frame rate : 23.976 fps
Resolution : 24 bits
Scan type : Progressive
Bits/(Pixel*Frame) : 0.124
Stream size : 576 MiB (82%)

Audio
Format : MPEG Audio
Format version : Version 1
Format profile : Layer 3
Codec ID : 55
Codec ID/Hint : MP3
Duration : 1h 48mn
Bit rate mode : Variable
Bit rate : 145 Kbps
Channel(s) : 2 channels
Sampling rate : 48.0 KHz
Resolution : 16 bits
Stream size : 113 MiB (16%)
Alignment : Aligned on interleaves
Interleave, duration : 24 ms (0.58 video frame)
Interleave, preload duration : 238 ms
Writing library : LAME3.91
Encoding settings : VBR (mtrh)

related torrents

Torrent name

health leech seeds Size
 


comments (0)

Main Menu