Horror

Pop Skull [2007] DVDRiP XViD MisFitZ rar

  • Download 5x Faster
  • Download torrent
  • Direct Download
  • Rate this torrent +  |  -
Pop Skull [2007] DVDRiP XViD MisFitZ rar

Free and Direct Download with Usenet 300GB+ free


Torrent info

Name:Pop Skull [2007] DVDRiP XViD MisFitZ rar

Total Size: 698.04 MB

Magnet: Magnet Link

Seeds: 2

Leechers: 3

Stream: Watch Online @ Movie4u

Last Updated: 2010-11-30 04:52:22 (Update Now)

Torrent added: 2009-09-05 14:35:04




Torrent Files List


Pop Skull [2007] DVDRiP XViD-MisFitZ.rar (Size: 698.04 MB) (Files: 1)

 Pop Skull [2007] DVDRiP XViD-MisFitZ.rar

698.04 MB
 

Announce URL: http://genesis.1337x.org:1337/announce

Torrent description

Pop Skull [2007] DVDRiP XViD-MisFitZ


General
Complete name : Pop Skull [2007] DVDRiP XViD-MisFitZ.avi
Format : AVI
Format/Info : Audio Video Interleave
File size : 702 MiB
Duration : 1h 29mn
Overall bit rate : 1 103 Kbps
Writing application : VirtualDubMod 1.5.10.2 (build 2540/release)
Writing library : VirtualDubMod build 2540/release

Video
Format : MPEG-4 Visual
Format profile : Streaming [email protected]
Format settings, BVOP : Yes
Format settings, QPel : No
Format settings, GMC : No warppoints
Format settings, Matrix : Default
Codec ID : XVID
Codec ID/Hint : XviD
Duration : 1h 29mn
Bit rate : 971 Kbps
Width : 640 pixels
Height : 368 pixels
Display aspect ratio : 16/9
Frame rate : 23.976 fps
Resolution : 24 bits
Colorimetry : 4:2:0
Scan type : Progressive
Bits/(Pixel*Frame) : 0.172
Stream size : 618 MiB (88%)
Writing library : XviD 1.2.1 (UTC 2008-12-04)

Audio
Format : MPEG Audio
Format version : Version 1
Format profile : Layer 3
Codec ID : 55
Codec ID/Hint : MP3
Duration : 1h 29mn
Bit rate mode : Variable
Bit rate : 119 Kbps
Minimum bit rate : 128 Kbps
Channel(s) : 2 channels
Sampling rate : 48.0 KHz
Resolution : 16 bits
Stream size : 76.0 MiB (11%)
Alignment : Aligned on interleaves
Interleave, duration : 24 ms (0.58 video frame)
Interleave, preload duration : 154 ms
Writing library : LAME3.97
Encoding settings : ABR

related torrents

Torrent name

health leech seeds Size
 

comments (0)

Main Menu