Sci-Fi

Absolon [2003] LiMiTED DVDrip DivX ALLiANCE avi rar

  • Download 5x Faster
  • Download torrent
  • Direct Download
  • Rate this torrent +  |  -
Absolon [2003] LiMiTED DVDrip DivX ALLiANCE avi rar

Anonymous and Free Direct Download 300GB+


Torrent info

Name:Absolon [2003] LiMiTED DVDrip DivX ALLiANCE avi rar

Total Size: 701.48 MB

Magnet: Magnet Link

Seeds: 0

Leechers: 0

Stream: Watch Online @ Movie4u

Last Updated: 2012-01-11 07:53:27 (Update Now)

Torrent added: 2009-09-05 14:33:54



VPN For Torrents

Torrent Files List


Absolon [2003] LiMiTED DVDrip DivX-ALLiANCE.avi.rar (Size: 701.48 MB) (Files: 1)

 Absolon [2003] LiMiTED DVDrip DivX-ALLiANCE.avi.rar

701.48 MB
 

Announce URL: http://tracker.publicbt.com/announce

Torrent description

Absolon [2003] LiMiTED DVDrip DivX-ALLiANCE avi



General
Complete name : Absolon [2003] LiMiTED DVDrip DivX-ALLiANCE.avi
Format : AVI
Format/Info : Audio Video Interleave
File size : 700 MiB
Duration : 1h 32mn
Overall bit rate : 1 061 Kbps
Writing application : Nandub v1.0rc2
Writing library : Nandub build 1853/release

Video
Format : MPEG-4 Visual
Codec ID : DIV3
Codec ID/Hint : DivX 3 Low
Duration : 1h 32mn
Bit rate : 897 Kbps
Width : 640 pixels
Height : 352 pixels
Display aspect ratio : 16/9
Frame rate : 25.000 fps
Resolution : 24 bits
Bits/(Pixel*Frame) : 0.159
Stream size : 592 MiB (85%)

Audio
Format : MPEG Audio
Format version : Version 1
Format profile : Layer 3
Codec ID : 55
Codec ID/Hint : MP3
Duration : 1h 32mn
Bit rate mode : Variable
Bit rate : 151 Kbps
Minimum bit rate : 128 Kbps
Channel(s) : 2 channels
Sampling rate : 48.0 KHz
Resolution : 16 bits
Stream size : 99.5 MiB (14%)
Alignment : Aligned on interleaves
Interleave, duration : 24 ms (0.60 video frame)
Interleave, preload duration : 432 ms
Writing library : LAME3.92
Encoding settings : VBR (rh)

related torrents

Torrent name

health leech seeds Size
 


comments (0)

Main Menu