Mystery

The Da Vinci Code Extended Cut [2006] DVDRip N!CK

  • Download 5x Faster
  • Download torrent
  • Direct Download
  • Rate this torrent +  |  -

Torrent info

Name:The Da Vinci Code Extended Cut [2006] DVDRip N!CK

Total Size: 1.37 GB

Magnet: Magnet Link

Seeds: 0

Leechers: 0

Stream: Watch Full Movie @ Movie4u

Last Updated: 2017-11-15 04:44:29 (Update Now)

Torrent added: 2009-09-05 08:36:32



VPN For Torrents

Torrent Files List


Subtitles (Size: 1.37 GB) (Files: 8)

 Subtitles

  The Da Vinci Code Extended Cut [2006] DVDRip [ROM].srt

139.58 KB

  The Da Vinci Code Extended Cut [2006] DVDRip [ENG].srt

137.01 KB

  The Da Vinci Code Extended Cut [2006] DVDRip [ESP].srt

134.29 KB

  The Da Vinci Code Extended Cut [2006] DVDRip [FRE].srt

121.78 KB

  The Da Vinci Code Extended Cut [2006] DVDRip (Non-English Parts Only) [ENG].srt

14.69 KB

 The Da Vinci Code Extended Cut [2006] DVDRip - N!CK.avi

1.36 GB

 Sample.avi

7.41 MB

 Release Info.txt

1.02 KB
 

tracker

leech seeds
 

Torrent description

General
Complete name : C:\The Da Vinci Code Extended Cut [2006] DVDRip - N!CK\The Da Vinci Code Extended Cut [2006] DVDRip - N!CK.avi
Format : AVI
Format/Info : Audio Video Interleave
File size : 1.36 GiB
Duration : 2h 54mn
Overal bit rate : 1119 Kbps

Video
Format : MPEG-4 Visual
Format profile : Streaming [email protected]
Format settings, BVOP : Yes
Format settings, QPel : No
Format settings, GMC : No warppoints
Format settings, Matrix : Default
Codec ID : XVID
Codec ID/Hint : XviD
Duration : 2h 54mn
Bit rate : 994 Kbps
Width : 704 pixels
Height : 320 pixels
Display aspect ratio : 2.2
Frame rate : 23.976 fps
Resolution : 8 bits
Colorimetry : 4:2:0
Scan type : Progressive
Bits/(Pixel*Frame) : 0.184
Stream size : 1.21 GiB
Writing library : XviD 50

Audio
Format : MPEG Audio
Format version : Version 1
Format profile : Layer 3
Codec ID : 55
Codec ID/Hint : MP3
Bit rate mode : Constant
Bit rate : 112 Kbps
Channel(s) : 2 channels
Sampling rate : 48.0 KHz
Resolution : 16 bits
Stream size : 140 MiB

related torrents

Torrent name

health leech seeds Size
 


comments (0)

Main Menu

 

script data-cfasync="false" src="//d2ghscazvn398x.cloudfront.net/?cshgd=690275">