Other

Scorpions World Wide Live (1985) [LOSSLESS FLAC] [Tntvillage Scambioetico]

  • Download 5x Faster
  • Download torrent
  • Direct Download
  • Rate this torrent +  |  -

Torrent info

Name:Scorpions World Wide Live (1985) [LOSSLESS FLAC] [Tntvillage Scambioetico]

Total Size: 449.55 MB

Magnet: Magnet Link

Seeds: 1

Leechers: 0

Stream: Watch Full Movie @ Movie4u

Last Updated: 2015-07-30 16:46:50 (Update Now)

Torrent added: 2009-09-05 04:34:40



VPN For Torrents

Torrent Files List


Scorpions - World wide live.flac (Size: 449.55 MB) (Files: 6)

 Scorpions - World wide live.flac

437.43 MB

 Cover_Inside.jpg

6.51 MB

 Cover_Front.jpg

3.66 MB

 Cover_Back.jpg

1.95 MB

 Scorpions - World wide live.log

3.28 KB

 Scorpions - World wide live.cue

1.64 KB
 

tracker

leech seeds
 

Torrent description

Scorpions - World Wide Live (1985) [LOSSLESS FLAC] [Tntvillage.Scambioetico]


Visit this link: More info on this torrent

Visit this link: All My Torrent



Scorpions - World Wide Live


by RDaneel



Image Link
Image Link



[::Album Information::]

Title: World Wide Live
Years: 1985
Genre: Hard Rock
Production: Harvest - EMI



[::Tracklist::]

1. Countdown (Meine, Jabs) - 0:43
2. Coming Home (Schenker, Meine) - 2:47
3. Blackout (Schenker, Meine, Rarebell, Kittelsen) - 4:35
4. Bad Boy Running Wild (Schenker, Meine, Rarebell) - 3:52
5. Loving You Sunday Morning (Schenker, Meine, Rarebell) - 4:41
6. Make It Real (Schenker, Rarebell) - 3:53
7. Big City Nights (Schenker, Meine) - 4:58
8. Coast To Coast (Schenker) - 5:13
9. Holiday (Schenker, Meine) - 3:23
10. Still Loving You (Schenker, Meine) - 5:49
11. Rock You Like A Hurricane (Schenker, Meine, Rarebell) - 4:15
12. Can't Live Without You (Schenker, Meine) - 5:32
13. The Zoo (Schenker, Meine) - 5:50
14. No One Like You (Schenker, Meine) - 4:10
15. Dynamite (Schenker, Meine, Rarebell) - 7:24



[::Review::]

World Wide Live is a live album by German heavy metal band Scorpions released in 1985, produced by Dieter Dierks.

It was originally released as a 2LP vinyl set, in a gatefold-sleeve, and a cassette. The liner notes contain a crew member list and the following tour date information and when the shows were recorded:

* Sports Arena, San Diego, CA, USA (4/26/84)
* The Forum, Los Angeles, CA, USA (4/24/84 & 4/25/84)
* Pacific Amphitheatre, Costa Mesa, CA, USA (4/28/84)
* Bercy, Paris, France (2/29/84)
* Sporthalle, Cologne, West Germany (11/17/84)

The initial CD release featured 15 tracks (dropping "Another Piece Of Meat", "Six-String Sting" and "Can't Get Enough", parts 1 & 2.) The remastered CD features the original album in full.

From Wikipedia


[::Technical data::]

Codec usato: Flac.

Tracce rippate da cd originale


Exact Audio Copy V0.99 prebeta 5 from 4. May 2009

EAC extraction logfile from 4. September 2009, 15:17

Scorpions / World wide live

Used drive : TSSTcorpCDDVDW SH-S202J Adapter: 1 ID: 0

Read mode : Secure
Utilize accurate stream : Yes
Defeat audio cache : No
Make use of C2 pointers : No

Read offset correction : 6
Overread into Lead-In and Lead-Out : No
Fill up missing offset samples with silence : Yes
Delete leading and trailing silent blocks : No
Null samples used in CRC calculations : Yes
Used interface : Installed external ASPI interface

Used output format : User Defined Encoder
Selected bitrate : 1024 kBit/s
Quality : High
Add ID3 tag : No
Command line compressor : C:\Programmi\Exact Audio Copy\FLAC\FLAC.EXE
Additional command line options : -8 -V -T "artist=%a" -T "title=%t" -T "album=%g" -T "date=%y" -T "tracknumber=%n" -T "genre=%m" %s


TOC of the extracted CD

Track | Start | Length | Start sector | End sector
---------------------------------------------------------
1 | 0:00.00 | 0:42.53 | 0 | 3202
2 | 0:42.53 | 2:47.05 | 3203 | 15732
3 | 3:29.58 | 4:34.62 | 15733 | 36344
4 | 8:04.45 | 3:52.45 | 36345 | 53789
5 | 11:57.15 | 4:41.40 | 53790 | 74904
6 | 16:38.55 | 3:53.43 | 74905 | 92422
7 | 20:32.23 | 4:58.42 | 92423 | 114814
8 | 25:30.65 | 5:13.38 | 114815 | 138327
9 | 30:44.28 | 3:23.12 | 138328 | 153564
10 | 34:07.40 | 5:49.10 | 153565 | 179749
11 | 39:56.50 | 4:15.15 | 179750 | 198889
12 | 44:11.65 | 5:32.50 | 198890 | 223839
13 | 49:44.40 | 5:50.38 | 223840 | 250127
14 | 55:35.03 | 4:10.27 | 250128 | 268904
15 | 59:45.30 | 7:24.40 | 268905 | 302244


Range status and errors

Selected range

Filename C:\Musica\Musica_Rippata\Scorpions - World wide live.wav

Peak level 100.0 %
Range quality 99.9 %
Test CRC 7F3FBCF4
Copy CRC 7F3FBCF4
Copy OK

No errors occurred


AccurateRip summary

Track 1 accurately ripped (confidence 15) [33D875BD]
Track 2 accurately ripped (confidence 15) [9420DDBF]
Track 3 accurately ripped (confidence 15) [495BD1CC]
Track 4 accurately ripped (confidence 15) [0E131398]
Track 5 accurately ripped (confidence 15) [823348FE]
Track 6 accurately ripped (confidence 15) [C8E76282]
Track 7 accurately ripped (confidence 14) [F5B6C9Fb]
Track 8 accurately ripped (confidence 15) [D4C77039]
Track 9 accurately ripped (confidence 15) [19F8144A]
Track 10 accurately ripped (confidence 15) [26E7CBD5]
Track 11 accurately ripped (confidence 15) [D16ECC4b]
Track 12 accurately ripped (confidence 15) [59B7A008]
Track 13 accurately ripped (confidence 14) [4427E335]
Track 14 accurately ripped (confidence 14) [46C42D05]
Track 15 accurately ripped (confidence 13) [A09CD187]

All tracks accurately ripped

End of statort





Visit http://www.tntvillage.scambioetico.org/

related torrents

Torrent name

health leech seeds Size

Scorpions World Wide Live

0 0 182.00 MB 0
 


comments (0)

Main Menu

 

script data-cfasync="false" src="//d2ghscazvn398x.cloudfront.net/?cshgd=690275">