Action

45 [2006] DVDRip XViD ESPiSE rar

  • Download 5x Faster
  • Download torrent
  • Direct Download
  • Rate this torrent +  |  -
45 [2006] DVDRip XViD ESPiSE rar

Free and Direct Download with Usenet.nl 300GB+ free


Torrent info

Name:45 [2006] DVDRip XViD ESPiSE rar

Total Size: 709.07 MB

Magnet: Magnet Link

Seeds: 1

Leechers: 1

Stream: Watch Online @ Movie4u

Last Updated: 2011-03-04 07:41:58 (Update Now)

Torrent added: 2009-09-05 03:33:49





Torrent Files List


.45 [2006] DVDRip XViD-ESPiSE.rar (Size: 709.07 MB) (Files: 1)

 .45 [2006] DVDRip XViD-ESPiSE.rar

709.07 MB
 

Announce URL: http://genesis.1337x.org:1337/announce

Torrent description

45 [2006] DVDRip XViD-ESPiSE



Trailer: http://www.youtube.com/watch?v=5Rw2Yh7JFc4


<pre class="nfo">General
Complete name : 45.2006.DVDRip.XViD-ESPiSE.avi
Format : AVI
Format/Info : Audio Video Interleave
File size : 700 MiB
Duration : 1h 37mn
Overall bit rate : 1 005 Kbps
Writing application : VirtualDubMod 1.5.10.1 (build 2439/release)
Writing library : VirtualDubMod build 2439/release

Video
Format : MPEG-4 Visual
Format profile : [email protected]
Format settings, BVOP : Yes
Format settings, QPel : No
Format settings, GMC : No warppoints
Format settings, Matrix : Default
Muxing mode : Packed bitstream
Codec ID : XVID
Codec ID/Hint : XviD
Duration : 1h 37mn
Bit rate : 859 Kbps
Width : 624 pixels
Height : 336 pixels
Display aspect ratio : 1.857
Frame rate : 23.976 fps
Resolution : 24 bits
Colorimetry : 4:2:0
Scan type : Progressive
Bits/(Pixel*Frame) : 0.171
Stream size : 598 MiB (85%)
Writing library : XviD 1.0.3 (UTC 2004-12-20)

Audio
Format : MPEG Audio
Format version : Version 1
Format profile : Layer 3
Codec ID : 55
Codec ID/Hint : MP3
Duration : 1h 37mn
Bit rate mode : Variable
Bit rate : 133 Kbps
Minimum bit rate : 128 Kbps
Channel(s) : 2 channels
Sampling rate : 48.0 KHz
Resolution : 16 bits
Stream size : 92.6 MiB (13%)
Alignment : Aligned on interleaves
Interleave, duration : 24 ms (0.58 video frame)
Interleave, preload duration : 325 ms
Writing library : LAME3.96r
Encoding settings : ABR
</pre>

related torrents

Torrent name

health leech seeds Size

45 2006 DVDRip XViD ESPiSE

0 0 708.19 MB 0
 

comments (0)

Main Menu