Drama

The Three Faces of Eve (1957) Joanne Woodward

  • Download 5x Faster
  • Download torrent
  • Direct Download
  • Rate this torrent +  |  -
The Three Faces of Eve (1957) Joanne Woodward

Anonymous and Free Direct Download 300GB+


Torrent info

Name:The Three Faces of Eve (1957) Joanne Woodward

Total Size: 824.00 MB

Magnet: Magnet Link

Seeds: 10

Leechers: 0

Stream: Watch Online @ Movie4u

Last Updated: 0000-00-00 00:00:00 (Update Now)

Torrent added: 2009-09-05 01:35:05



VPN For Torrents

Torrent Files List


FAQ README.txt (Size: 824.00 MB) (Files: 3)

 FAQ README.txt

4.45 KB

 The Three Faces of Eve (1957) - Joanne Woodward.avi

823.99 MB

 Torrent downloaded from Demonoid.com.txt

0.05 KB
 

Announce URL: http://tracker.publicbt.com/announce

Torrent description

When Alistair Cooke shows up to introduce Three Faces of Eve, we know that the fact-based story will bear more than a little fidelity to truth. Joanne Woodward won an Academy Award for her portrayal of Eve, a young Georgia housewife suffering from multiple personalities. Eve's husband (David Wayne), confused by his wife's aberrant behavior when assuming her two "other selves," seeks out help from a psychiatrist (Lee J. Cobb). Carefully probing Eve's subconscious via hypnosis, the doctor finds out that, though each of Eve's personalities is aware of the other's existence, none are related. After months of therapy, Eve is purged of her negative selves and is totally cured. Ironically, Joanne Woodward would herself play a psychologist confronted with a multiple-personality case in the Emmy-winning 1976 TV movie Sybil.


http://www.imdb.com/title/tt0051077/



Subs:


http://www.opensubtitles.org/en/search/sublanguageid-all/idmovie-7472



Awards:
Won Oscar. Another 2 wins & 1 nomination



Director:
Nunnally Johnson




Joanne Woodward ... Eve White / Eve Black / Jane
David Wayne ... Ralph White

Lee J. Cobb ... Doctor Curtis Luther
Edwin Jerome ... Doctor Francis Day
Alena Murray ... Secretary


Video
Format : MPEG-4 Visual
Format settings, BVOP : Yes
Format settings, QPel : No
Format settings, GMC : No warppoints
Format settings, Matrix : Default
Codec ID : DX50
Codec ID/Hint : DivX 5
Duration : 1h 27mn
Bit rate : 1 052 Kbps
Width : 704 pixels
Height : 288 pixels
Display aspect ratio : 2.444
Frame rate : 25.000 fps
Resolution : 24 bits
Colorimetry : 4:2:0
Scan type : Progressive
Bits/(Pixel*Frame) : 0.208
Stream size : 659 MiB (80%)
Writing library : DivX 2816
Audio
Format : AC-3
Format/Info : Audio Coding 3
Codec ID : 2000
Duration : 1h 27mn
Bit rate mode : Constant
Bit rate : 256 Kbps
Channel(s) : 2 channels
Channel positions : L R
Sampling rate : 48.0 KHz
Stream size : 160 MiB (19%)
Alignment : Aligned on interleaves
Interleave, duration : 96 ms (2.40 video frames)
Interleave, preload duration : 96 ms
Language : English

related torrents

Torrent name

health leech seeds Size
 


comments (0)

Main Menu