Sci-Fi

District 9 (2009) DVDRip XviD MAX

  • Download 5x Faster
  • Download torrent
  • Direct Download
  • Rate this torrent +  |  -
District 9 (2009) DVDRip XviD MAX

Anonymous and Free Direct Download 300GB+


Torrent info

Name:District 9 (2009) DVDRip XviD MAX

Total Size: 700.57 MB

Magnet: Magnet Link

Seeds: 0

Leechers: 0

Stream: Watch Online @ Movie4u

Last Updated: 0000-00-00 00:00:00 (Update Now)

Torrent added: 2009-09-04 23:36:19



VPN For Torrents

Torrent Files List


District 9 (2009) DVDRip XviD-MAXSPEED www.torentz.3xforum.ro.avi (Size: 700.57 MB) (Files: 7)

 District 9 (2009) DVDRip XviD-MAXSPEED www.torentz.3xforum.ro.avi

700.05 MB

 dvdcover.jpg

270.65 KB

 screencaps.jpg

255.37 KB

 District 9 (2009) DVDRip XviD-MAXSPEED.nfo

2.59 KB

 Torrent downloaded from Demonoid.com.txt

0.05 KB

 Torrent downloaded from Rarbg.com.txt

0.03 KB

 tracked_by_h33t_com.txt

0.02 KB
 

Announce URL:

Torrent description

District 9 (2009) DVDRip XviD-MAX

Format : AVI
Format/Info : Audio Video Interleave
File size : 700 MiB
Duration : 1h 47mn
Overall bit rate : 909 Kbps
Writing application : Hyper HD Xvid
Writing library : VirtualDub build 32559/release


Video
ID : 0
Format : MPEG-4 Visual
Format profile : AdvancedSimple[@]L5
Format settings, BVOP : Yes
Format settings, QPel : No
Format settings, GMC : No warppoints
Format settings, Matrix : Default (H.263)
Muxing mode : Packed bitstream
Codec ID : XVID
Codec ID/Hint : XviD
Duration : 1h 47mn
Bit rate : 797 Kbps
Width : 624 pixels
Height : 336 pixels
Display aspect ratio : 1.857
Frame rate : 25.000 fps
Resolution : 24 bits
Colorimetry : 4:2:0
Scan type : Progressive
Bits/(Pixel*Frame) : 0.152
Stream size : 614 MiB (88%)
Writing library : XviD 1.2.1 (UTC 2008-12-04)

Audio
ID : 1
Format : MPEG Audio
Format version : Version 1
Format profile : Layer 3
Codec ID : 55
Codec ID/Hint : MP3
Duration : 1h 47mn
Bit rate mode : Variable
Bit rate : 105 Kbps
Minimum bit rate : 32.0 Kbps
Channel(s) : 2 channels
Sampling rate : 44.1 KHz
Resolution : 16 bits
Stream size : 76.7 MiB (11%)
Alignment : Aligned on interleaves
Interleave, duration : 26 ms (0.65 video frame)
Interleave, preload duration : 290 ms
Writing library : LAME3.98r
Encoding settings : -m j -V 6 -q 5 -lowpass 15.5



More info and screens:

http://www.torentz.3xforum.ro/post/897/1/District_9_2009_DVDRip_XviD-MAXSPEED/

related torrents

Torrent name

health leech seeds Size
 


comments (0)

Main Menu