Funny clips

bubble gang fri04sep2009 PHILIPPINES tvrip (TAGALOG) [tukmol101]

  • Download 5x Faster
  • Download torrent
  • Direct Download
  • Rate this torrent +  |  -
bubble gang fri04sep2009 PHILIPPINES tvrip (TAGALOG) [tukmol101]

Anonymous and Free Direct Download 300GB+


Torrent info

Name:bubble gang fri04sep2009 PHILIPPINES tvrip (TAGALOG) [tukmol101]

Total Size: 365.72 MB

Magnet: Magnet Link

Seeds: 0

Leechers: 0

Stream: Watch Online @ Movie4u

Last Updated: 2015-09-27 15:03:44 (Update Now)

Torrent added: 2009-09-04 15:05:56



VPN For Torrents

Torrent Files List


bubble gang.avi (Size: 365.72 MB) (Files: 3)

 bubble gang.avi

357.82 MB

 sample.avi

7.91 MB

 Torrent downloaded from Demonoid.com.txt

0.05 KB
 

tracker

leech seeds
 

Torrent description

with sample
Format : AVI
Format/Info : Audio Video Interleave
File size : 358 MiB
Duration : 45mn 39s
Overall bit rate : 1 096 Kbps
Writing application : VirtualDubMod 1.5.4.1 (build 2178/release)
Writing library : VirtualDubMod build 2178/release

Video
ID : 0
Format : MPEG-4 Visual
Format profile : [email protected]
Format settings, BVOP : Yes
Format settings, QPel : No
Format settings, GMC : No warppoints
Format settings, Matrix : Default (H.263)
Muxing mode : Packed bitstream
Codec ID : XVID
Codec ID/Hint : XviD
Duration : 45mn 39s
Bit rate : 984 Kbps
Width : 624 pixels
Height : 464 pixels
Display aspect ratio : 4:3
Frame rate : 29.970 fps
Resolution : 24 bits
Colorimetry : 4:2:0
Scan type : Progressive
Bits/(Pixel*Frame) : 0.113
Stream size : 321 MiB (90%)
Writing library : XviD 1.2.1 (UTC 2008-12-04)

Audio
ID : 1
Format : MPEG Audio
Format version : Version 1
Format profile : Layer 3
Codec ID : 55
Codec ID/Hint : MP3
Duration : 45mn 39s
Bit rate mode : Variable
Bit rate : 101 Kbps
Nominal bit rate : 128 Kbps
Channel(s) : 2 channels
Sampling rate : 32.0 KHz
Resolution : 16 bits
Stream size : 32.9 MiB (9%)
Alignment : Aligned on interleaves
Interleave, duration : 36 ms (1.08 video frame)
Interleave, preload duration : 520 ms
Writing library : LAME3.98r
Encoding settings : -m j -V 4 -q 2 -lowpass 16 --abr 128

related torrents

Torrent name

health leech seeds Size
 


comments (0)

Main Menu