Horror

The Shortcut[2009]DvDrip LW [Bit Byte]

  • Download 5x Faster
  • Download torrent
  • Direct Download
  • Rate this torrent +  |  -
The Shortcut[2009]DvDrip LW [Bit Byte]

Free and Direct Download with Usenet.nl 300GB+ free


Torrent info

Name:The Shortcut[2009]DvDrip LW [Bit Byte]

Total Size: 701.18 MB

Magnet: Magnet Link

Seeds: 9

Leechers: 8

Stream: Watch Online @ Movie4u

Last Updated: 2010-09-22 11:50:46 (Update Now)

Torrent added: 2009-09-04 08:34:15





Torrent Files List


Cover (Size: 701.18 MB) (Files: 6)

 Cover

  Cover.jpg

125.54 KB

 Info

  Movie Info.nfo

4.07 KB

  Movie Info.txt

2.91 KB

 Movie

  The Shortcut[2009]DvDrip-LW.avi

701.05 MB

 Trackers

  Torrent_downloaded_from_Demonoid.com.txt

0.05 KB

  tracked_by_h33t_com.txt

0.02 KB
 

Announce URL: http://www.h33t.com:3310/announce

Torrent description

) (`-. (` .-') /` ) (`-.
( OO ). `.( OO ),' ( OO ).
(_/. \_)-.-'),-----. ,--. ,--./ .--. .-'),-----.(_/. \_)-.
`.' ( OO' .-. '| |.-') | | | ( OO' .-. ' `.' /
/Y | | | || | OO )| | | |,/ | | | | /
\_) | || || |`-' || |.'.| |_)_) | || | |
.' \_) | | | (| '---.'| | | | | | .' \_)
/ .'. `' '-' '| | | ,'. | `' '-' '/ .'.
'--' '--' `-----' `------' '--' '--' `-----''--' '--'


ßßßßßßßßßßßßßßßßßßßßßßßßßßßßßßßßßßßßßßßßßßßßßßßßßßßßßßßßßßßßßßßßßßßßßß

Û°°°°°°°°°°°°°°°°°°°°°°°°°°°°°Û
ÛÛ The Shortcut[2009]DvDrip-LW ÛÛ
Û°°°°°°°°°°°°°°°°°°°°°°°°°°°°°Û

File Name : The Shortcut[2009]DvDrip-LW
Type : Movie
Format : AVI
File Size : 701 MB
Duration : 01:25:15
Language : English
Source : DvD
Subtitles : None
Genre : Horror | Thriller
IMDB Link : http://www.imdb.com/title/tt1243955/
IMDB Rating : 5.9/10
IMDB Votes : 24 Votes
ÜÜÜÜÜÜÜÜÜÜÜÜÜÜÜÜÜÜÜÜÜÜÜÜÜÜÜÜÜÜÜÜÜÜÜÜÜÜÜÜÜÜÜÜÜÜÜÜÜÜÜÜÜÜÜÜÜÜÜÜÜÜÜÜÜÜÜÜÜÜ

Û°°°°°°°°°°°°°°°°°°°°°°°°Û
ÛÛ Video Info ÛÛ
Û°°°°°°°°°°°°°°°°°°°°°°°°Û

Format : MPEG-4 Visual
Format profile : Streaming [email protected]
Format settings, BVOP : Yes
Format settings, QPel : No
Format settings, GMC : No warppoints
Format settings, Matrix : Default (H.263)
Codec ID : XVID
Codec ID/Hint : XviD
Duration : 1h 25mn
Bit rate : 692 Kbps
Width : 592 pixels
Height : 256 pixels
Display aspect ratio : 2.35
Frame rate : 23.976 fps
Resolution : 24 bits
Colorimetry : 4:2:0
Scan type : Progressive
Bits/(Pixel*Frame) : 0.191
Stream size : 422 MiB (60%)
Writing library : XviD 1.2.1
ÜÜÜÜÜÜÜÜÜÜÜÜÜÜÜÜÜÜÜÜÜÜÜÜÜÜÜÜÜÜÜÜÜÜÜÜÜÜÜÜÜÜÜÜÜÜÜÜÜÜÜÜÜÜÜÜÜÜÜÜÜÜÜÜÜÜÜÜÜÜ

Û°°°°°°°°°°°°°°°°°°°°°°°°Û
ÛÛ Sound Info ÛÛ
Û°°°°°°°°°°°°°°°°°°°°°°°°Û

Format : AC-3
Format/Info : Audio Coding 3
Codec ID : 2000
Duration : 1h 25mn
Bit rate mode : Constant
Bit rate : 448 Kbps
Channel(s) : 6 channels
Channel positions : Front: L C R, Surround: L R, LFE
Sampling rate : 48.0 KHz
Video delay : 500ms
Stream size : 273 MiB (39%)
Alignment : Split accross interleaves
Interleave, duration : 42 ms (1.00 video frame)
Interleave, preload duration : 500 ms
ÜÜÜÜÜÜÜÜÜÜÜÜÜÜÜÜÜÜÜÜÜÜÜÜÜÜÜÜÜÜÜÜÜÜÜÜÜÜÜÜÜÜÜÜÜÜÜÜÜÜÜÜÜÜÜÜÜÜÜÜÜÜÜÜÜÜÜÜÜÜ

Û°°°°°°°°°°°°°°°°°°°°°°°°Û
ÛÛ Plot ÛÛ
Û°°°°°°°°°°°°°°°°°°°°°°°°Û

When Derek (Andrew Seeley) moves to a new town and
discovers a shortcut through the woods to his high
school, he learns about a crazy old man who lives
near its path: Legend has it that he abducted a
group of teenagers years ago. Ignoring the warning,
Derek and his friends set out to uncover the dark
secret that's buried deep in the woods. But will
they survive to tell it? Shannon Woodward and Katrina
Bowden co-star in this creepy thriller.

Starring: Andrew Seeley, Shannon Woodward

Director: Nicholaus Goossen
ÜÜÜÜÜÜÜÜÜÜÜÜÜÜÜÜÜÜÜÜÜÜÜÜÜÜÜÜÜÜÜÜÜÜÜÜÜÜÜÜÜÜÜÜÜÜÜÜÜÜÜÜÜÜÜÜÜÜÜÜÜÜÜÜÜÜÜÜÜÜ

related torrents

Torrent name

health leech seeds Size
 

comments (0)

Main Menu