Action

Blood And Bone 2009 DVDRip XviD DOMiNO rar

  • Download 5x Faster
  • Download torrent
  • Direct Download
  • Rate this torrent +  |  -
Blood And Bone 2009 DVDRip XviD DOMiNO rar

Anonymous and Free Direct Download 300GB+


Torrent info

Name:Blood And Bone 2009 DVDRip XviD DOMiNO rar

Total Size: 704.21 MB

Magnet: Magnet Link

Seeds: 2

Leechers: 13

Stream: Watch Online @ Movie4u

Last Updated: 2010-12-28 11:52:43 (Update Now)

Torrent added: 2009-09-03 23:35:05



VPN For Torrents

Torrent Files List


Blood.And.Bone.2009.DVDRip.XviD-DOMiNO.rar (Size: 704.21 MB) (Files: 1)

 Blood.And.Bone.2009.DVDRip.XviD-DOMiNO.rar

704.21 MB
 

Announce URL: http://genesis.1337x.org:1337/announce

Torrent description

Blood And Bone 2009 DVDRip XviD-DOMiNO


General
Complete name : Blood And Bone [2009]DVDRip.XviD-DOMiNO
Format : AVI
Format/Info : Audio Video Interleave
File size : 700 MiB
Duration : 1h 33mn
Overall bit rate : 1 048 Kbps
Writing application : VirtualDubMod 1.5.10.2 (build 2540/release)
Writing library : VirtualDubMod build 2540/release

Video
Format : MPEG-4 Visual
Format profile : Streaming [email protected]
Format settings, BVOP : Yes
Format settings, QPel : No
Format settings, GMC : No warppoints
Format settings, Matrix : Default
Codec ID : XVID
Codec ID/Hint : XviD
Duration : 1h 33mn
Bit rate : 906 Kbps
Width : 640 pixels
Height : 352 pixels
Display aspect ratio : 16/9
Frame rate : 23.976 fps
Resolution : 24 bits
Colorimetry : 4:2:0
Scan type : Progressive
Bits/(Pixel*Frame) : 0.168
Stream size : 605 MiB (86%)
Writing library : XviD 1.1.2 (UTC 2006-11-01)

Audio
Format : MPEG Audio
Format version : Version 1
Format profile : Layer 3
Codec ID : 55
Codec ID/Hint : MP3
Duration : 1h 33mn
Bit rate mode : Variable
Bit rate : 129 Kbps
Nominal bit rate : 128 Kbps
Channel(s) : 2 channels
Sampling rate : 48.0 KHz
Resolution : 16 bits
Stream size : 86.3 MiB (12%)
Alignment : Aligned on interleaves
Interleave, duration : 24 ms (0.58 video frame)
Interleave, preload duration : 142 ms
Writing library : LAME3.90.
Encoding settings : ABR

related torrents

Torrent name

health leech seeds Size
 


comments (0)

Main Menu