WWE - Wrestling

TNA iMPACT 03 09 09 [SatRiP XviD Mp3 ENG][TNTVillage Scambioetico]

  • Download 5x Faster
  • Download torrent
  • Direct Download
  • Rate this torrent +  |  -
TNA iMPACT 03 09 09 [SatRiP XviD Mp3 ENG][TNTVillage Scambioetico]

Free and Direct Download with Usenet.nl 300GB+ free


Torrent info

Name:TNA iMPACT 03 09 09 [SatRiP XviD Mp3 ENG][TNTVillage Scambioetico]

Total Size: 701.86 MB

Magnet: Magnet Link

Seeds: 4

Leechers: 2

Stream: Watch Online @ Movie4u

Last Updated: 2009-11-21 21:21:09 (Update Now)

Torrent added: 2009-09-03 21:35:13





Torrent Files List


TNA.iMPACT.2009.09.03.HDTV.XviD-iOFE.avi (Size: 701.86 MB) (Files: 1)

 TNA.iMPACT.2009.09.03.HDTV.XviD-iOFE.avi

701.86 MB
 

Announce URL: http://tracker.tntvillage.scambioetico.org:2710/announce

Torrent description

TNA iMPACT 03-09-09 [SatRiP-XviD-Mp3-ENG][TNTVillage.Scambioetico]



General
Complete name : C:\TNA.iMPACT.2009.09.03.HDTV.XviD-iOFE.avi
Format : AVI
Format/Info : Audio Video Interleave
File size : 702 MiB
Duration : 1h 30mn
Overall bit rate : 1 090 Kbps
Writing application : Nandub v1.0rc2
Writing library : Nandub build 1853/release

Video
Format : MPEG-4 Visual
Format profile : Streaming [email protected]
Format settings, BVOP : Yes
Format settings, QPel : No
Format settings, GMC : No warppoints
Format settings, Matrix : Default
Codec ID : XVID
Codec ID/Hint : XviD
Duration : 1h 30mn
Bit rate : 945 Kbps
Width : 640 pixels
Height : 352 pixels
Display aspect ratio : 16/9
Frame rate : 25.000 fps
Resolution : 24 bits
Colorimetry : 4:2:0
Scan type : Progressive
Bits/(Pixel*Frame) : 0.168
Stream size : 608 MiB (87%)
Writing library : XviD 1.2.1 (UTC 2008-12-04)

Audio
Format : MPEG Audio
Format version : Version 1
Format profile : Layer 3
Codec ID : 55
Codec ID/Hint : MP3
Duration : 1h 30mn
Bit rate mode : Variable
Bit rate : 132 Kbps
Channel(s) : 2 channels
Sampling rate : 48.0 KHz
Resolution : 16 bits
Stream size : 85.3 MiB (12%)
Alignment : Aligned on interleaves
Interleave, duration : 24 ms (0.60 video frame)
Interleave, preload duration : 463 ms

related torrents

Torrent name

health leech seeds Size
 

comments (0)

Main Menu