Action

Ride Or Die[2003]DVDrip[Eng]AC3[5 1] Atlas47

  • Download 5x Faster
  • Download torrent
  • Direct Download
  • Rate this torrent +  |  -
Ride Or Die[2003]DVDrip[Eng]AC3[5 1] Atlas47

Free and Direct Download with Usenet.nl 300GB+ free


Torrent info

Name:Ride Or Die[2003]DVDrip[Eng]AC3[5 1] Atlas47

Total Size: 1.37 GB

Magnet: Magnet Link

Seeds: 0

Leechers: 0

Stream: Watch Online @ Movie4u

Last Updated: 2013-04-11 07:06:36 (Update Now)

Torrent added: 2009-09-03 21:33:57





Torrent Files List


Covers (Size: 1.37 GB) (Files: 5)

 Covers

  Ride Or Die.jpg

724.90 KB

 Ride Or Die.avi

1.37 GB

 Ride Or Die.idx

42.97 KB

 Ride Or Die.nfo

10.14 KB

 Ride Or Die.sub

3.22 MB
 

Announce URL:

Torrent description


±±±±±±±±±±±±±±±±±±±±±±±±±±±±±±>>www.tornster.com<<±±±±±±±±±±±±±±±±±±±±±±±±±±±±±±
± ±
± INFO: ±
± ±
± General ±
± Complete name : Ride Or Die ±
± Genre : Action / Crime / Thriller ±
± Format : AVI ±
± Format/Info : Audio Video Interleave ±
± File size : 1.37 GiB ±
± Duration : 1h 24mn ±
± Overall bit rate : 2 323 Kbps ±
± Writing application : VirtualDubMod 1.5.4.1 (build 2178/release)±
± Writing library : VirtualDubMod build 2178/release ±
± ±
± Video ±
± Format : MPEG-4 Visual ±
± Format settings, BVOP : Yes ±
± Format settings, QPel : No ±
± Format settings, GMC : No warppoints ±
± Format settings, Matrix : Default ±
± Codec ID : DX50 ±
± Codec ID/Hint : DivX 5 ±
± Duration : 1h 24mn ±
± Bit rate : 1 867 Kbps ±
± Width : 720 pixels ±
± Height : 384 pixels ±
± Display aspect ratio : 1.875 ±
± Frame rate : 25.000 fps ±
± Resolution : 24 bits ±
± Colorimetry : 4:2:0 ±
± Scan type : Progressive ±
± Bits/(Pixel*Frame) : 0.270 ±
± Stream size : 1.10 GiB (80%) ±
± Writing library : DivX 2816 ±
± ±
± Audio ±
± Format : AC-3 ±
± Format/Info : Audio Coding 3 ±
± Codec ID : 2000 ±
± Duration : 1h 24mn ±
± Bit rate mode : Constant ±
± Bit rate : 448 Kbps ±
± Channel(s) : 6 channels ±
± Channel positions : Front: L C R, Surround: L R, LFE ±
± Sampling rate : 48.0 KHz ±
± Stream size : 270 MiB (19%) ±
± Alignment : Split accross interleaves ±
± Interleave, duration : 80 ms (2.00 video frames) ±
± Interleave, preload duration : 500 ms ±
± Language : English ±
± Subtitles : English ±
± ±
± IMDb Rating : 4.1/10 ±
± IMDb URL : http://www.imdb.com/title/tt0313532/ ±
± ±
±°°°°°°°°°°°°°°°°°°°°°°°°°°°°°°°°°°°°°°°°°°°°°°°°°°°°°°°°°°°°°°°°°°°°°°°°°°°°°°±
± ±
± Duane Martin and sexy co-star Vivica A. Fox set it off in this explosive ±
± action/thriller abour a super-cool P.I. investigating the murder of his ±
± friend and corruption in the world of rap. ±
± ±
± ±
± ±
± ±
± ±
± ±
± ±
± ±
±°°°°°°°°°°°°°°°°°°°°°°°°°°°°°°°°°°°°°°°°°°°°°°°°°°°°°°°°°°°°°°°°°°°°°°°°°°°°°°±
± ±
± CAST: ±
± ±
± Duane Martin...............Conrad 'Rad' McRae ±
± Vivica A. Fox..............Lisa ±
± Meagan Good................Fake Venus ±
± Michael Taliferro..........B Free ±
± Jadakiss...................Benjamin / Killer Ben ±
± Daniel Dae Kim.............Miyako ±
± Sticky Fingaz..............Demise ±
± ±
±°°°°°°°°°°°°°°°°°°°°°°°°°°°°°°°°°°°°°°°°°°°°°°°°°°°°°°°°°°°°°°°°°°°°°°°°°°°°°°±
± ±
± Please remember to seed ±
± ±
± Standalone Enabled ±
± ±
± www.tornster.com ±
± ±
±±±±±±±±±±±±±±±±±±±±±±±±±±±±±±±±±±±±±±±±±±±±±±±±±±±±±±±±±±±±±±±±±±±±±±±±±±±±±±±±

related torrents

Torrent name

health leech seeds Size
 

comments (0)

Main Menu