Comedy

Baby Mama (2008) DvdRip 1337x By {Noir}

  • Download 5x Faster
  • Download torrent
  • Direct Download
  • Rate this torrent +  |  -
Baby Mama (2008) DvdRip 1337x By {Noir}

Anonymous and Direct Download 300GB+ free


Torrent info

Name:Baby Mama (2008) DvdRip 1337x By {Noir}

Total Size: 742.82 MB

Magnet: Magnet Link

Seeds: 2

Leechers: 10

Stream: Watch Online @ Movie4u

Last Updated: 2010-09-21 16:15:20 (Update Now)

Torrent added: 2008-08-23 20:43:19




Torrent Files List


1337x.Org.txt (Size: 742.82 MB) (Files: 5)

 1337x.Org.txt

0.03 KB

 Baby Mama (2008) [DvdRip] [1337x] By {Noir}.avi

724.60 MB

 Noir.nfo

5.68 KB

 Subs

  Baby Mama (2008) [DvdRip] [1337x] By {Noir}.idx

220.66 KB

  Baby Mama (2008) [DvdRip] [1337x] By {Noir}.sub

18.00 MB
 

Announce URL: http://genesis.1337x.org:1337/announce

Torrent description

Baby Mama (2008) DvdRip 1337x By {Noir} preview 0

Screenshots

Baby Mama (2008) DvdRip 1337x By {Noir} preview 1

Baby Mama (2008) DvdRip 1337x By {Noir} preview 2

Baby Mama (2008) DvdRip 1337x By {Noir} preview 3

Baby Mama (2008) DvdRip 1337x By {Noir} preview 4

[code]
______________________________________________________________
▓▓▓▓▓▓ |
▓█████▓ ▓▓▓▓ |
▓██████▓ ▓▓███▓ |
▓▓██████▓ ▓████▓▓▓▓▓▓ |
██████▓ ▓██▒█▓▓███▓▓ ▓▓▓▓▓▓▓▓▓▓▓▓▓ |
▓██▒████▓ ▓██▒█▓██████▓▓███▓███▓███▓▓ |
▓██▒▒████▓ ▓██▒███▒▒▒▒██▓████████████▓ |
▓██▒▒▒▒███▓ ▓██▒██▒▒▒▒▒▒███▒▒▒██▒█▒▒▒██▓▓ |
▓██▒▒██▒▒██▓▓██▒██▒▒█▒▒▒▒███████▒▒▒▒▒▒██▓ |
▓██▒▒███▒▒██▓██▒██▒█▓█▒▒▒██▒▒▒██▒▒██▒▒▒█▓ |
▓██▒▒████▒▒████▒██▒█▓█▒▒▒██▒▒▒██▒▒███▒██▓ |
▓██▒▒█▓███▒▒███▒██▒▒█▒▒▒▒██▒▒▒██▒▒██████▓ |
▓██▒▒█▓▓███▒▒██▒██▒▒▒▒▒▒▒██▒▒▒██▒▒██▓███▓ |
▓▓██▒▒█▓ ▓███▒▒█▒██▒▒▒▒▒▒▒███████▒▒██▓▓▓▓▓ |
▓▓███▒▒█▓ ▓███▒▒▒███▒▒▒▒▒██▓▓▓▓██▒▒██▓ |
▓████▒▒█▓ ▓███▒▒█████████▓▓ ▓██▒▒██▓ |
▓████▒▒█▓ ▓███▒█▓██████▓▓▓ ▓██████▓ |
▓███████▓ ▓▓████▓▓▓▓▓▓▓▓ ▓▓▓▓▓▓▓▓ |
▓▓▓▓▓▓▓▓▓ ▓▓▓▓▓ |
______________________________________________________________|



********************
* Baby Mama (2008) *
********************

________________________
General Information |
________________________|
_______________________________________________________________
Type : Movie |
Format : AVI |
Format/Info : Audio Video Interleave |
File size : 725 MiB |
Duration : 1h 35mn |
Subtitles : English,Spanish,French |
Source : Dvd NTSC |
Genre : Comedy | Romance |
IMDB Link : http://www.imdb.com/title/tt0871426/ |
Rating : 6.1/10 |
_______________________________________________________________|
Video
Format : AVC
Format/Info : Advanced Video Codec
Format profile : [email protected]
Format settings, CABAC : Yes
Format settings, ReFrames : 2 frames
Codec ID : H264
Duration : 1h 35mn
Bit rate : 928 Kbps
Width : 624 pixels
Height : 336 pixels
Display aspect ratio : 1.857
Frame rate : 23.976 fps
Resolution : 24 bits
Colorimetry : 4:2:0
Scan type : Progressive
Bits/(Pixel*Frame) : 0.185
Stream size : 631 MiB (87%)
_______________________________________________________________
Audio
Format : MPEG Audio
Format version : Version 1
Format profile : Layer 3
Codec ID : 55
Codec ID/Hint : MP3
Duration : 1h 35mn
Bit rate mode : Constant
Bit rate : 128 Kbps
Minimum bit rate : 128 Kbps
Channel(s) : 2 channels
Sampling rate : 48.0 KHz
Resolution : 16 bits
Stream size : 87.1 MiB (12%)
Alignment : Aligned on interleaves
Interleave, duration : 42 ms (1.00 video frame)
Interleave, preload duration : 504 ms
Writing library : LAME3.97
Encoding settings : CBR
_______________________________________________________________
________________
Description |
________________|
_______________________________________________________________
Successful and single businesswoman Kate Holbrook has long put |
her career ahead of a personal life. Now 37, she\'s finally |
determined to have a kid on her own. But her plan is thrown a |
curve ball after she discovers she has only a million-to-one |
chance of getting pregnant, due to her \"T-shaped uterus.\" |
Undaunted, the driven Kate allows South Philly working girl |
Angie Ostrowiski to become her unlikely surrogate. Simple |
enough ... |
_______________________________________________________________|
____________________
Playback Information|
____________________|
_______________________________________________________________
For best playback with my movie you will need an h.264/x264 |
Decoder.My personal favorite is CoreAvc Professional. |
http://www.coreavc.com/ . You can download it with serial |
and application from My site here. |
http://noirsstuff.googlepages.com/home |
You can also use ffdshow for playback as well,VLC media Player,|
And media player classic. |
_______________________________________________________________|
___________________
Post Information |
___________________|
________________________________
Posted by............: Noir |
Posted on............: 8/23/2008|
________________________________|

[/code]

Baby Mama (2008) DvdRip 1337x By {Noir} preview 5

Baby Mama (2008) DvdRip 1337x By {Noir} preview 6

related torrents

Torrent name

health leech seeds Size
 


comments (0)

Main Menu