Other

Gran Torino (2008) DVDRip XviD ~ Smeet

  • Download 5x Faster
  • Download torrent
  • Direct Download
  • Rate this torrent +  |  -
Gran Torino (2008) DVDRip XviD ~ Smeet

Anonymous and Free Direct Download


Torrent info

Name:Gran Torino (2008) DVDRip XviD ~ Smeet

Total Size: 800.86 MB

Magnet: Magnet Link

Seeds: 23

Leechers: 2

Stream: Watch Online @ Movie4u

Last Updated: 2010-11-28 22:34:41 (Update Now)

Torrent added: 2009-09-03 15:38:50



VPN For Torrents

Torrent Files List


Gran Torino (2008)-DVDRip-XviD ~ Smeet.avi (Size: 800.86 MB) (Files: 3)

 Gran Torino (2008)-DVDRip-XviD ~ Smeet.avi

800.74 MB

 Gran Torino (2008)-DVDRip-XviD ~ Smeet.srt

114.29 KB

 smeet.nfo

6.94 KB
 

Announce URL: http://tracker.openbittorrent.com/announce

Torrent description


################## TM
##^^^^^^^^^^^^^^^^####
############## #^^^^^^^^^^^^^^^^^^^##
###### #### #########^^^^^# #^^^^^#########^^^^^#
###### ####### ###########^^^# #^^^^^^^^^^^^^#^^^^^#
####### ####### ############^^## #^^^^^^^^^^^^^#^^^^^#
################################# ############^^^###^^^^^^^^^^^^^#^^^^^#
############################################^#^^#^^^^^^^^^^^^^^^^#^^^^^#
#####################################^^^^^^^^#^^#########^^^#######^^^^#####
####################################^^^^^^^^^##^^^^^^^^^##^^#^^^^^^^^^^^^^^##
####################################^^^^^^^^^^###^^^^^^^^#^^#^^^^^^^^^^^^^^^##
######################### ##########^^^^^####^^##^^^^^^^^#^^#^^^^^^^^^^^^^^^##
####################################^########^^#^#########^^######^^^^^######
#############################################^^#^#^^^^^^^^^^^^^^^#^^^^^#
##############################################^#^#^^^^^^^^^^^^^^^#^^^^^#
##############################################^#^#^^^^^^^^^^^^^^^#^^^^^#
##################################^^^^^^^^^^#^#^^^^^^^^^^^^^^^#^^^^^#
############################################^^^#^##^^^^^^^^^^^^^^#^^^^^#
##############################################^#^^^###^^^^^^^^^^^#^^^^^#
#################################################^^^^#^^^^^^^^^^^#^^^^^#
###############################################^######^^^^^^^^^^^#^^^^^#
###################### ###### ##############^^^^^^^^^^^########^^^^^#
###################### ###### ##############^^##^^^^^^^# #^^^^^^#
###################### ###### ##################^^^^^^^# #^^^^^^#
############## ############### ######^^# ########
############## ############### ###
#############
MEANS QUALITY

=======================================================
= Gran Torino (2008) =
=======================================================

|##############################################################################|
| |
|GENERAL INFORMATION |
|=================== |
|Format : AVI |
|Format/Info : Audio Video Interleave |
|Format profile : OpenDML |
|File size : 801 MiB |
|Duration : 1h 51mn |
|Overall bit rate : 1 001 Kbps |
|Language : English Source: DVD |
|SUBTITLE : English |
|GENRE : Crime | Drama |
|IMDB LINK : http://www.imdb.com/title/tt1205489/ |
|IMDB RATING : 8.4/10 |
|RIPPER : SMEET |
|##############################################################################|

|##############################################################################|
| |
|Video |
|Format : MPEG-4 Visual |
|Format settings, Matrix : Custom |
|Codec ID : XVID |
|Codec ID/Hint : XviD |
|Duration : 1h 51mn |
|Width : 608 pixels |
|Height : 256 pixels |
|Display aspect ratio : 2.35 |
|Frame rate : 25.000 fps |
|Resolution : 24 bits |
|Colorimetry : 4:2:0 |
|Scan type : Progressive |
|Bits/(Pixel*Frame) : 0.232 |
|Stream size : 721 MiB (90%) |
|Writing library : XviD 1.2.1 (UTC 2008-12-04) rter. |
|##############################################################################|
|Audio |
|Format : MPEG Audio |
|Format version : Version 1 |
|Format profile : Layer 3 |
|Codec ID : 55 |
|Codec ID/Hint : MP3 |
|Duration : 1h 51mn |
|Bit rate mode : Constant |
|Bit rate : 96.0 Kbps |
|Channel(s) : 2 channels |
|Sampling rate : 32.0 KHz |
|Resolution : 16 bits |
|Stream size : 76.8 MiB (10%) |
|Alignment : Aligned on interleaves |
|Interleave, duration : 788 ms (19.71 video frames) |
|Interleave, preload duration : 216 ms |
|Title : gran torino ~ smeet T80 3_2ch 384Kbps |
|Writing library : LAME3.98r |
|Encoding settings : -m j -V 4 -q 2 -lowpass 15.1 -b 96 |
|##############################################################################|
www.AhaShare.Com







related torrents

Torrent name

health leech seeds Size
 


comments (0)

Main Menu