Documentary

March Of The Penguins][Xvid][English][Hectorbsinspector][1337x orG]

  • Download 5x Faster
  • Download torrent
  • Direct Download
  • Rate this torrent +  |  -
March Of The Penguins][Xvid][English][Hectorbsinspector][1337x orG]

Free and Direct Download with Usenet.nl 300GB+ free


Torrent info

Name:March Of The Penguins][Xvid][English][Hectorbsinspector][1337x orG]

Total Size: 700.01 MB

Magnet: Magnet Link

Seeds: 3

Leechers: 4

Stream: Watch Online @ Movie4u

Last Updated: 2011-01-05 16:13:08 (Update Now)

Torrent added: 2009-09-03 15:37:18





Torrent Files List


March Of The Penguins.avi (Size: 700.01 MB) (Files: 3)

 March Of The Penguins.avi

699.99 MB

 200px-March_of_the_penguins_poster[1].jpg

17.10 KB

 March Of The Penguins.txt

3.48 KB
 

Announce URL: http://genesis.1337x.org:1337/announce

Torrent description

This Rip Is In Eglish
____________________

March of the Penguins (French: La Marche de l'empereur; literally The Emperor's March) is a French nature documentary film which won the 2005 Academy Award for
Best Documentary Feature.[1] It was directed and co-written by Luc Jacquet, and co-produced by Bonne Pioche and the National Geographic Society.

The film depicts the yearly journey of the emperor penguins of Antarctica. In autumn, all the penguins of breeding age (five years old and over) leave the ocean,
their normal habitat, to walk inland to their ancestral breeding grounds. There, the penguins participate in a courtship that, if successful, results in the
hatching of a chick. For the chick to survive, both parents must make multiple arduous journeys between the ocean and the breeding grounds over the ensuing months.

It took one year for the two isolated cinematographers Laurent Chalet and Jérôme Maison to shoot the movie, which was filmed around the French scientific base of
Dumont d'Urville in Adélie Land.
________________________________________________________________________________________________________________________________________________________________

General
Complete name : March Of The Penguins\March Of The Penguins.avi
Format : AVI
Format/Info : Audio Video Interleave
File size : 700 MiB
Duration : 30mn 39s
Overall bit rate : 3 192 Kbps
Writing application : VirtualDubMod 1.5.4.1 (build 2178/release)
Writing library : VirtualDubMod build 2178/release

Video
ID : 0
Format : MPEG-4 Visual
Format profile : [email protected]
Format settings, BVOP : Yes
Format settings, QPel : No
Format settings, GMC : No warppoints
Format settings, Matrix : Custom
Codec ID : XVID
Codec ID/Hint : XviD
Duration : 30mn 39s
Bit rate : 3 056 Kbps
Width : 720 pixels
Height : 544 pixels
Display aspect ratio : 4/3
Frame rate : 25.000 fps
Resolution : 24 bits
Colorimetry : 4:2:0
Scan type : Progressive
Bits/(Pixel*Frame) : 0.312
Stream size : 670 MiB (96%)
Writing library : XviD 1.2.1 (UTC 2008-12-04)

Audio
ID : 1
Format : MPEG Audio
Format version : Version 1
Format profile : Layer 3
Codec ID : 55
Codec ID/Hint : MP3
Duration : 30mn 39s
Bit rate mode : Constant
Bit rate : 128 Kbps
Channel(s) : 2 channels
Sampling rate : 48.0 KHz
Resolution : 16 bits
Stream size : 28.1 MiB (4%)
Alignment : Aligned on interleaves
Interleave, duration : 80 ms (2.00 video frames)
Interleave, preload duration : 504 ms
Writing library : LAME3.98r
Encoding settings : -m j -V 4 -q 2 -lowpass 17 -b 128
Language : English


related torrents

Torrent name

health leech seeds Size
 

comments (0)

Main Menu