Music Videos

iron maiden sign of the cross[voldemort5][h33t com]

  • Download 5x Faster
  • Download torrent
  • Direct Download
  • Rate this torrent +  |  -
iron maiden sign of the cross[voldemort5][h33t com]

Free and Direct Download with Usenet.nl 300GB+ free


Torrent info

Name:iron maiden sign of the cross[voldemort5][h33t com]

Total Size: 182.86 MB

Magnet: Magnet Link

Seeds: 0

Leechers: 1

Stream: Watch Online @ Movie4u

Last Updated: 2011-07-14 06:20:03 (Update Now)

Torrent added: 2009-09-03 13:39:01





Torrent Files List


best of the beast.jpg (Size: 182.86 MB) (Files: 4)

 best of the beast.jpg

49.03 KB

 guitar tabs of iron maiden-sign of the cross[voldemort5][h33t.com].doc

40.02 KB

 iron maiden-sign of the cross[voldemort5][h33t.com].avi

182.77 MB

 tracked_by_h33t_com.txt

0.02 KB
 

Announce URL: http://tracker.torrentbox.com:2710/announce

Torrent description

Nobody can deny the influence IRON mAIDEN and its most popular mascot EDDIE have in the scenario of the HEAVY METAL. The song "SIGN of The CROSS" has everything a rock enthusiast can asked. An awesome 10 min 45 sec song with the voice of legendary BRUCE DICKINSON and the guitar play in the song. The versatile nature of song (considering the fact of the rhythm and riff ) makes it one of my song.

I have tried my best to rip it into a HQ/HD . But i have failed to shrink the size of the file. I request everybody to please suggest me a software which can not only rip any video (from DVD) in HQ but also can shrink it to small size. i have included the guitar tab of the song also courtesy my bro (which i hope work fine)..... Njoy

As always do comment and most importantly SEED it !!!!!!!!!!!!!

General
Format : AVI
Format/Info : Audio Video Interleave
File size : 183 MiB
Duration : 10mn 45s
Overall bit rate : 2 374 Kbps

Video
Format : S-Mpeg 4 v2
Codec ID : MP42
Codec ID/Info : Microsoft MPEG-4 V2
Duration : 10mn 45s
Bit rate : 2 299 Kbps
Width : 1 280 pixels
Height : 720 pixels
Display aspect ratio : 16:9
Frame rate : 25.000 fps
Resolution : 24 bits
Bits/(Pixel*Frame) : 0.100
Stream size : 177 MiB (97%)

Audio

Format : MPEG Audio
Codec ID/Hint : MP3
Duration : 10mn 45s
Bit rate mode : Constant
Bit rate : 64.0 Kbps
Channel(s) : 2 channels
Sampling rate : 44.1 KHz
Resolution : 16 bits
Stream size : 4.93 MiB (3%)
Interleave, duration : 26 ms (0.65 video frame)



related torrents

Torrent name

health leech seeds Size

The Sign of The Cross

0 0 1.39 GB 0
 

comments (0)

Main Menu