Movies

Terminator salvation 2009 dvdrip xvid 800mb Original Release

  • Download 5x Faster
  • Download torrent
  • Direct Download
  • Rate this torrent +  |  -

Torrent info

Name:Terminator salvation 2009 dvdrip xvid 800mb Original Release

Total Size: 807.79 MB

Magnet: Magnet Link

Seeds: 0

Leechers: 4

Stream: Watch Online @ Movie4u

Last Updated: 2010-08-18 20:26:38 (Update Now)

Torrent added: 2009-11-04 03:01:16



VPN For Torrents

Torrent Files List


 

Announce URL: http://tracker.thepiratebay.org/announce

Torrent description

Terminator.Salvation.2009.DVDrip.XviD.800MB - ORiGiNAL Release


TiTLE.........[ Terminator Salvation
YEAR..........[ 2009
GENRE.........[ Action | Adventure | Sci-Fi | Thriller
iMDB URL......[ http://www.imdb.com/title/tt0438488/


RELEASE NOTES:

[FORMAT]:.......................[ AVI
[FILE SIZE]:....................[ 801 MB
[LANGUAGE ]:....................[ English
[RELEASE RUNTIME]:..............[ 01:57:18
[SUBTITLES]:....................[ None
[VIDEO]:........................[ Xvid 640x272 23.98fps
[AUDIO]:........................[ MPEG Audio Layer 3 48000Hz stereo 128Kbps


General
Complete name : Terminator.Salvation.2009.DVDrip.XviD.800MB.avi
Format : AVI
Format/Info : Audio Video Interleave
File size : 801 MiB
Duration : 1h 57mn
Overall bit rate : 955 Kbps
Writing application : VirtualDubMod 1.5.10.2 (build 2542/release)
Writing library : VirtualDubMod build 2542/release

Video
ID : 0
Format : MPEG-4 Visual
Format profile : [email protected]
Format settings, BVOP : Yes
Format settings, QPel : No
Format settings, GMC : No warppoints
Format settings, Matrix : Default (H.263)
Muxing mode : Packed bitstream
Codec ID : XVID
Codec ID/Hint : XviD
Duration : 1h 57mn
Bit rate : 817 Kbps
Width : 640 pixels
Height : 272 pixels
Display aspect ratio : 2.35:1
Frame rate : 23.976 fps
Resolution : 24 bits
Colorimetry : 4:2:0
Scan type : Progressive
Bits/(Pixel*Frame) : 0.196
Stream size : 686 MiB (86%)
Writing library : XviD 1.2.1 (UTC 2008-12-04)

Audio
ID : 1
Format : MPEG Audio
Format version : Version 1
Format profile : Layer 3
Codec ID : 55
Codec ID/Hint : MP3
Duration : 1h 57mn
Bit rate mode : Constant
Bit rate : 128 Kbps
Channel(s) : 2 channels
Sampling rate : 48.0 KHz
Resolution : 16 bits
Stream size : 107 MiB (13%)
Alignment : Aligned on interleaves
Interleave, duration : 42 ms (1.00 video frame)
Interleave, preload duration : 504 ms
Writing library : LAME3.98r
Encoding settings : -m j -V 4 -q 2 -lowpass 17 -b 128




Use VLC Player - For Playing MKV Files

OR

Use Community Codec Pack - For Playing MKV Files in Other Media Players


SAMPLE :
The sample file is available in the torrent contents itself


SCREENSHOTS :



IMDB MOVIE INFO :

Director: McG

Writers (WGA): John D. Brancato (written by) &
Michael Ferris (written by)

Tagline:
The End Begins

Plot:
After Skynet has destroyed much of humanity in a nuclear holocaust, a group of survivors led by John Connor struggles to keep the machines from finishing the job.


Cast
(Cast overview, first billed only)
Christian Bale ... John Connor
Sam Worthington ... Marcus Wright
Moon Bloodgood ... Blair Williams
Helena Bonham Carter ... Dr. Serena Kogan
Anton Yelchin ... Kyle Reese
Jadagrace ... Star (as Jadagrace berry)
Bryce Dallas Howard ... Kate Connor
Common ... Barnes
Jane Alexander ... Virginia
Michael Ironside ... General Ashdown
Ivan G'Vera ... General Losenko
Chris Browning ... Morrison
Dorian Nkono ... David
Beth Bailey ... Lisa
Victor J. Ho ... Mark (as Victor Ho)

related torrents

Torrent name

health leech seeds Size
 


comments (0)

Main Menu