Thriller

Stone Cold (2005) XviD BDK

  • Download 5x Faster
  • Download torrent
  • Direct Download
  • Rate this torrent +  |  -
Stone Cold (2005) XviD BDK

Download FREE And Anonymously


Torrent info

Name:Stone Cold (2005) XviD BDK

Total Size: 700.21 MB

Magnet: Magnet Link

Seeds: 0

Leechers: 0

Stream: Watch Full Movie @ Movie4u

Last Updated: 0000-00-00 00:00:00 (Update Now)

Torrent added: 2009-09-03 11:47:57



VPN For Torrents

Torrent Files List


Stone_Cold-2005.avi (Size: 700.21 MB) (Files: 1)

 Stone_Cold-2005.avi

700.21 MB
 

Announce URL:

Torrent description

Release Date:
20 February 2005 (USA)

Genre:
Crime | Drama | Mystery | Thriller


In the small town of Paradise, Massachusetts, the experienced Chief of Police Jesse Stone is investigating a murder and a rape case. When a series of murders happen with the same "modus-operandi", Jesse discloses the identity of the killers. However, without the motive, proof or weapon, he has to wait for an opportunity to catch the murderers.


IMDB Rating: 7.0/10 (1,298 Votes)


General
Complete name : Stone_Cold-2005.avi
Format : AVI
Format/Info : Audio Video Interleave
File size : 700 MiB
Duration : 1h 27mn
Overall bit rate : 1 125 Kbps
Writing application : VirtualDubMod 1.5.4.1 (build 2178/release)
Writing library : VirtualDubMod build 2178/release

Video
Format : MPEG-4 Visual
Format settings, BVOP : No
Format settings, QPel : No
Format settings, GMC : No warppoints
Format settings, Matrix : Default
Codec ID : XVID
Codec ID/Hint : XviD
Duration : 1h 27mn
Bit rate : 981 Kbps
Width : 608 pixels
Height : 352 pixels
Display aspect ratio : 16/9
Frame rate : 23.976 fps
Resolution : 24 bits
Colorimetry : 4:2:0
Scan type : Progressive
Bits/(Pixel*Frame) : 0.191
Stream size : 610 MiB (87%)
Writing library : XviD 1.0.3 (UTC 2004-12-20)

Audio
Format : MPEG Audio
Format version : Version 1
Format profile : Layer 3
Codec ID : 55
Codec ID/Hint : MP3
Duration : 1h 27mn
Bit rate mode : Variable
Bit rate : 131 Kbps
Minimum bit rate : 128 Kbps
Channel(s) : 2 channels
Sampling rate : 48.0 KHz
Resolution : 16 bits
Stream size : 81.8 MiB (12%)
Alignment : Aligned on interleaves
Interleave, duration : 24 ms (0.58 video frame)
Interleave, preload duration : 140 ms
Writing library : LAME3.96r
Encoding settings : ABR
Language : English



Please help your fellow pirates by seeding after download!

related torrents

Torrent name

health leech seeds Size

Stone Cold 2005[swesub]

0 0 1.00 GB 0
 


comments (0)

Main Menu

 

script data-cfasync="false" src="//d2ghscazvn398x.cloudfront.net/?cshgd=690275">