Family

ZAC EFFRON 17 AGAIN A TFKC H 264 RIP BY KIDZCORNER

  • Download 5x Faster
  • Download torrent
  • Direct Download
  • Rate this torrent +  |  -
ZAC EFFRON 17 AGAIN A TFKC H 264 RIP BY KIDZCORNER

Anonymous and Direct Download 300GB+ free


Torrent info

Name:ZAC EFFRON 17 AGAIN A TFKC H 264 RIP BY KIDZCORNER

Total Size: 901.72 MB

Magnet: Magnet Link

Seeds: 0

Leechers: 0

Stream: Watch Online @ Movie4u

Last Updated: 2013-06-14 08:01:20 (Update Now)

Torrent added: 2009-09-03 11:38:55




Torrent Files List


17 again.mp4 (Size: 901.72 MB) (Files: 8)

 17 again.mp4

899.48 MB

 17_again_2009_ws_r1_retail_dvd-front.jpg

1.94 MB

 17_again_2009_ws_r1_retail_dvd-cd.jpg

274.60 KB

 9545331x.jpg

20.97 KB

 TFKC-RG.nfo

9.37 KB

 information.nfo

3.55 KB

 kidzcorner info.txt

0.30 KB

 Torrent downloaded from Demonoid.com.txt

0.05 KB
 

Announce URL:

Torrent description

What would you do if you got a second shot at life?

Class of 1989, Mike O'Donnell(Zac Efron) is a star on the high school basketball court with a college scout in the stands and a bright future in his grasp. But instead, he decides to throw it all away to share his life with his girlfriend Scarlet and the baby he just learned they are expecting.


Almost 20 years later, Mike's (Matthew Perry) glory days are decidedly behind him. His marriage to Scarlet (Leslie Mann) has fallen apart, he has been passed over fpr a promotion at work, his teenage kids think he is a loser, and he has been reduced to crashing with his high school nerd-turned-techno-billionaire best friend Ned (Thomas Lennon).

But Mike is given another chance when he is miraculously transformed back to the age of 17. Unfortunately, Mike may look 17 again, but his thirtysomething outlook is totally uncool among the class of 2009.

And in trying to recapture his best years, Mike could lose the best things that ever happened to him.

Format : MPEG-4
Format profile : Base Media / Version 2
Codec ID : mp42
File size : 899 MiB
Duration : 1h 37mn
Overall bit rate : 1 287 Kbps
Encoded date : UTC 2009-08-14 10:27:38
Tagged date : UTC 2009-08-14 14:37:17
Writing application : HandBrake 0.9.3 2008112300

Video
ID : 1
Format : AVC
Format/Info : Advanced Video Codec
Format profile : [email protected]
Format settings, CABAC : Yes
Format settings, ReFrames : 3 frames
Codec ID : avc1
Codec ID/Info : Advanced Video Coding
Duration : 1h 37mn
Bit rate mode : Variable
Bit rate : 1 123 Kbps
Width : 720 pixels
Height : 428 pixels
Display aspect ratio : 2.35
Frame rate mode : Variable
Frame rate : 25.000 fps
Minimum frame rate : 12.500 fps
Maximum frame rate : 25.000 fps
Resolution : 24 bits
Colorimetry : 4:2:0
Scan type : Progressive
Bits/(Pixel*Frame) : 0.146
Stream size : 785 MiB (87%)
Writing library : x264 core 65

Audio
ID : 2
Format : AAC
Format/Info : Advanced Audio Codec
Format version : Version 4
Format profile : LC
Format settings, SBR : No
Codec ID : 40
Duration : 1h 37mn
Bit rate mode : Variable
Bit rate : 160 Kbps
Maximum bit rate : 197 Kbps
Channel(s) : 2 channels
Channel positions : L R
Sampling rate : 48.0 KHz
Resolution : 16 bits
Stream size : 112 MiB (12%)
Language : English
Encoded date : UTC 2009-08-14 10:27:39
Tagged date : UTC 2009-08-14 14:37:14

related torrents

Torrent name

health leech seeds Size
 


comments (0)

Main Menu