Family

Superman Die Abenteuer von Lois Clark Staffel 4 von 4german xvid

  • Download 5x Faster
  • Download torrent
  • Direct Download
  • Rate this torrent +  |  -
Superman Die Abenteuer von Lois Clark Staffel 4 von 4german xvid

Free and Direct Download with Usenet.nl 300GB+ free


Torrent info

Name:Superman Die Abenteuer von Lois Clark Staffel 4 von 4german xvid

Total Size: 7.47 GB

Magnet: Magnet Link

Seeds: 0

Leechers: 0

Stream: Watch Online @ Movie4u

Last Updated: 2016-03-15 02:56:47 (Update Now)

Torrent added: 2009-09-03 10:58:53





Torrent Files List


Die Abenteuer Von Lois & Clark - s04e10 - Lady Boss.avi (Size: 7.47 GB) (Files: 24)

 Die Abenteuer Von Lois & Clark - s04e10 - Lady Boss.avi

345.41 MB

 Die Abenteuer Von Lois & Clark - s04e11 - Und Taeglich Gruesst der Kobolt.avi

348.15 MB

 Die Abenteuer Von Lois & Clark - s04e12 - Perry Und Jerry.avi

350.58 MB

 Die Abenteuer Von Lois & Clark - s04e13 - Ein Schmutziges Geheimnis.avi

350.75 MB

 Die Abenteuer Von Lois & Clark - s04e14 - Praesident John Doe.avi

350.71 MB

 Die Abenteuer Von Lois & Clark - s04e15 - Zwei Clarks Fuer Lois.avi

350.78 MB

 Die Abenteuer Von Lois & Clark - s04e16 - Frieden Fuer Die Welt.avi

350.84 MB

 Die Abenteuer Von Lois & Clark - s04e17 - Die Fuechsin.avi

350.82 MB

 Die Abenteuer Von Lois & Clark - s04e18 - Der Schattenkiller.avi

350.69 MB

 Die Abenteuer Von Lois & Clark - s04e19 - Lex Luthor Junior.avi

342.85 MB

 Die Abenteuer Von Lois & Clark - s04e20 - Ein Schlechter Tausch.avi

336.00 MB

 Die Abenteuer Von Lois & Clark - s04e21 - Der Kinderdieb.avi

340.78 MB

 s04e22 - Dickschaedels Plan.avi

344.33 MB

 Superman - Die Abenteuer von Lois & Clark Staffel Season 4 - Cover.jpg

229.50 KB

 Superman - Die Abenteuer von Lois & Clark Staffel 4.nfo

3.21 KB

 Superman Die Abenteuer von Lois & Clark - 4e01 - Invasion In Smallville.avi

344.51 MB

 Superman Die Abenteuer von Lois & Clark - 4e02 - Duell Mit Lord Nor.avi

350.54 MB

 Superman Die Abenteuer von Lois & Clark - 4e03 - Die Hochzeitsfalle.avi

345.99 MB

 Superman Die Abenteuer von Lois & Clark - 4e04 - Der Böse Fluch.avi

350.07 MB

 Superman Die Abenteuer von Lois & Clark - 4e05 - Für Immer Jung.avi

347.44 MB

 Superman Die Abenteuer von Lois & Clark - 4e06 - Der Fall Lois Lane - Teil 1.avi

347.13 MB

 Superman Die Abenteuer von Lois & Clark - 4e07 - Der Fall Lois Lane - Teil 2.avi

350.79 MB

 Superman Die Abenteuer von Lois & Clark - 4e08 - Ein Reizendes Paar.avi

344.20 MB

 Superman Die Abenteuer von Lois & Clark - 4e09 - Der Geist der Katie Banks.avi

350.69 MB
 

tracker

leech seeds
 

Torrent description

Superman – Die Abenteuer von Lois & Clark ist eine Actionserie mit 88 Episoden (4 Staffeln). Es gibt viele Elemente,
die man schon aus den Supermanfilmen mit Christopher Reeve kannte, aber sie hat auch viel Neues zu bieten.
Im Gegensatz zu bisherigen Produktionen steht diesmal die Beziehung zwischen Lois und Clark im Mittelpunkt,
die Superman-Tätigkeit wird in zahlreichen Folgen, besonders in den letzten Staffeln, zur Nebensache. Außerdem
wurden die Hauptcharaktere neu gedeutet: Lois Lane tritt nun nicht mehr als blind verliebter Fan von Superman
auf, sondern als resolute und wortgewandte Frau. Im Gegensatz ist die Rolle des Clark nicht mehr der unsichere,
leicht trottelige Dorf-Reporter, sondern ein weltgewandter, sensibler und trotzdem selbstbewusster Journalist.

4. Staffel
67. Invasion in Smallville
68. Duell mit Lord Nor
69. Die Hochzeitsfalle
70. Der böse Fluch
71. Für immer jung
72. Der Fall Lois Lane - Teil 1
73. Der Fall Lois Lane - Teil 2
74. Ein reizendes Paar
75. Der Geist der Katie Banks
76. Lady Boß
77. Und täglich grüßt der Kobold
78. Perry und Jerry
79. Ein schmutziges Geheimnis?
80. Präsident John Doe
81. Zwei Clarks für Lois
82. Frieden für die Welt
83. Die Füchsin
84. Der Schattenkiller
85. Lex Luthor Junior
86. Ein schlechter Tausch
87. Der Kinderdieb
88. Dickschädels Plan

Format : AVI
Format/Info : Audio Video Interleave
Dateigröße : 322 MiB
Duration : 47min
Gesamte Bitrate : 951 Kbps
verwendete Encoder-Bibliothek : VirtualDub build 0/release

Format : MPEG-4 Visual
Format settings, BVOP : Ja
Format settings, QPel : Nein
Format settings, GMC : No warppoints
Format settings, Matrix : Default
Muxing mode : Packet Bitstream
Codec ID : DX50
Codec ID/Hint : DivX 5
Duration : 47min
Bitrate : 816 Kbps
Breite : 512 Pixel
Höhe : 384 Pixel
Bildseitenverhältnis : 4/3
Bildwiederholungsrate : 25.000 FPS
Auflösung : 8 bits
Colorimetry : 4:2:0
Scan type : Progressive
Bits/(Pixel*Frame) : 0.166
Stream size : 277 MiB (86%)
verwendete Encoder-Bibliothek : DivX 5.1.1 (Maupiti) (UTC 2003-11-19)

Format : MPEG Audio
Format version : Version 1
Format profile : Layer 3
Codec ID : 55
Codec ID/Hint : MP3
Duration : 47min
Bitraten-Modus : Variable
Bitrate : 122 Kbps
Kanäle : 2 Kanäle
Samplingrate : 48.0 KHz
Auflösung : 16 bits
Stream size : 41.3 MiB (13%)
Alignment : Aligned on interleaves
Interleave, duration : 24 ms (0.60 video frame)
Interleave, preload duration : 475 ms

related torrents

Torrent name

health leech seeds Size
 

comments (0)

Main Menu