Adventure

The New World 2005DvDrip DemonukNIKONRG

  • Download 5x Faster
  • Download torrent
  • Direct Download
  • Rate this torrent +  |  -
The New World 2005DvDrip DemonukNIKONRG

Anonymous and Free Direct Download


Torrent info

Name:The New World 2005DvDrip DemonukNIKONRG

Total Size: 695.91 MB

Magnet: Magnet Link

Seeds: 5

Leechers: 5

Stream: Watch Online @ Movie4u

Last Updated: 0000-00-00 00:00:00 (Update Now)

Torrent added: 2008-08-23 15:43:04



VPN For Torrents

Torrent Files List


The New World-[2005][DvDrip]-Demonuk[NIKONRG].avi (Size: 695.91 MB) (Files: 3)

 The New World-[2005][DvDrip]-Demonuk[NIKONRG].avi

695.91 MB

 The New World.info.txt

1.65 KB

 Torrent downloaded from Demonoid.com.txt

0.05 KB
 

Announce URL: http://inferno.demonoid.com:3393/announce

Torrent description

The New World-[2005][DvDrip]-Demonuk[NIKONRG]
__________________
MOVIE INFORMATION
__________________
TITLE.............:The New World
DIRECTOR..........:Terrence Malick
YEAR..............: 2005
RUNTIME...........:2h 9mn
GENRE.............: Adventure | Biography | Drama | History | Romance
FORMAT.............:AVI
Format/Info.........:Audio Video Interleave
File size..........:700 MiB
Duration..........:1h 34mn
Overal bit rate....871 Kbps
SOURCE............:PAL DVD
SIZE..............:700mb
IMDB..............: http://www.imdb.com/title/tt0402399/
USER RATING............: 6.9/10 (24,064 votes)
__________________
VIDEO INFORMATION
__________________
Format: MPEG-4 Visual
Format profile: Streaming [email protected]
Format settings, BVOP: Yes
Format settings, QPel: No
Format settings, GMC: No warppoints
Format settings, Matrix: Custom
Codec ID: XVID
Codec ID/Hint: XviD
Duration: 2h 9mn
Bit rate: 622 Kbps
Width: 544 pixels
Height: 240 pixels
Display aspect ratio: 2.25
Frame rate: 25.000 fps
Resolution: 8 bits
Colorimetry: 4:2:0
Scan type: Progressive
Bits/(Pixel*Frame):0.191
Stream size: 578 MiB (83%)

__________________
AUDIO INFORMATION
__________________
Format: MPEG Audio
Format version: Version 1
Format profile: Layer 3
Codec ID: 55
Codec ID/Hint: MP3
Duration: 2h 9mn
Bit rate mode: Variable
Bit rate: 118 Kbps
Minimum bit rate: 128 Kbps
Channel(s): 2 channels
Sampling rate: 48.0 KHz
Resolution: 16 bits
Stream size: 110 MiB (16%)
Writing library: LAME3.97
Encoding settings: ABR

__________________
MAIN CAST
__________________
Colin Farrell ... Captain Smith
Q'orianka Kilcher ... Pocahontas
Christopher Plummer ... Captain Newport
Christian Bale ... John Rolfe
August Schellenberg ... Powhatan


__________________
PLOT OUTLINE
__________________
When 17th century explorer John Smith and a few men go up the river to trade with the Indians,
he befriends the princess Pocahontas and they fall in love. While in love, Smith must obtain his duties
as president of Jamestown fort and challenges to himself what is the better path for himself to take:
stay with the fallen apart colony or go up the river and love Pocahontas in the wild.
The Indians realize that the English do not mean to leave, so they attack.
A few men at the fort decide to capture Pocahontas as a hostage so the Indians will not attack them.
Smith is ordered to leave Jamestown by the King, and John Rolfe, a wealthy tobacco planter arrives at
the fort. Pocahontas, now living there adapts to the English cultures and falls in love with Rolfe.
She falls apart deciding who she is dedicated to, Smith or Rolfe.
__________________
Info hash:B51875354EFA51AA00F0B0FA5D986EC7F1DCAFAA
Tracker announce: http://inferno.demonoid.com:3393/announce
Tracker announce: http://open.tracker.thepiratebay.org:80/announce
Tracker Scrape: http://inferno.demonoid.com:3393/scrape

__________________
Contents of download:

The New World-[2007][DvDrip]-Demonuk[NIKONRG].avi (700MB)
The New World.info.txt (1.65Kb)
Torrent downloaded from Demonoid.com.txt (47bytes)
___________________________________________________________________
> For Detailed Information on New Releases and Popular Request Click Here


^>>>>>>>>>>>>>>>>>>>>>>>>>>>>>>>>>>>>>>>>>>>>>>>>>>>>>>>>>>>>>>>>>>.^
^.......................................[email protected][email protected]@[email protected]@@[email protected]^
^[email protected]@[email protected]@[email protected]@[email protected][email protected]@[email protected]^
^[email protected]@[email protected]@[email protected]@@@@........ @[email protected]@[email protected]@[email protected]@[email protected]^
^[email protected]@[email protected]@[email protected]@[email protected]@[email protected]@[email protected]@[email protected]@[email protected]^
^[email protected]@[email protected]@[email protected]@[email protected]@[email protected]@[email protected]@[email protected]@........^
^[email protected]@[email protected]@[email protected]@[email protected]@[email protected]@[email protected]@[email protected]@.........^
^[email protected]@[email protected]@[email protected]@[email protected]@[email protected]@[email protected]@[email protected]@@@@@@............^
^[email protected]@[email protected]@[email protected]@[email protected]@[email protected]@[email protected]@[email protected]^
^[email protected]@[email protected]@[email protected]@[email protected]@[email protected]@[email protected]@[email protected]^
^[email protected]@[email protected]@[email protected]@[email protected]@[email protected]@[email protected]@[email protected]^
^[email protected]@[email protected]@[email protected]@[email protected]@[email protected]@[email protected]@[email protected]^
^[email protected]@[email protected]@[email protected]@[email protected]@[email protected]@[email protected]@[email protected]^
^[email protected]@@[email protected]@[email protected]@[email protected]@[email protected]@[email protected]@[email protected]@..............................^
^<<<<<<<<<<<<<<<<<<<<<<<<<<<<<<<<<<<<<<<<<<<<<<<<<<<<<<<<<<<<<<<<<<.^


related torrents

Torrent name

health leech seeds Size
 


comments (0)

Main Menu