Family

Return to snowy river[1988] DVDrip AC3 5 1 Maka6358 avi

  • Download 5x Faster
  • Download torrent
  • Direct Download
  • Rate this torrent +  |  -

Torrent info

Name:Return to snowy river[1988] DVDrip AC3 5 1 Maka6358 avi

Total Size: 1.37 GB

Magnet: Magnet Link

Seeds: 0

Leechers: 0

Stream: Watch Full Movie @ Movie4u

Last Updated: 2010-12-13 09:06:05 (Update Now)

Torrent added: 2009-09-03 10:32:18



VPN For Torrents

Torrent Files List


Return to snowy river[1988]-DVDrip-AC3 5.1-Maka6358.avi (Size: 1.37 GB) (Files: 1)

 Return to snowy river[1988]-DVDrip-AC3 5.1-Maka6358.avi

1.37 GB
 

Announce URL:

Torrent description

Young Jim Craig returns to the Australian high country, after being away herding the horses he caught and sold, in order to provide a stake for his future. He finds things quite different than when he left: his girlfriend, Jessica Harrison, is being pursued by a rich suitor, Jessica's father wants him out of her life, and the residents of the high country are being driven out by the wealthier low country ranchers. Jim definitely has his work cut out for him.

General
Complete name : Return to snowy river\Return to snowy river.avi
Format : AVI
Format/Info : Audio Video Interleave
File size : 1.37 GiB
Duration : 1h 39mn
Overall bit rate : 1 977 Kbps
Writing application : VirtualDubMod 1.5.4.1 (build 2178/release)
Writing library : VirtualDubMod build 2178/release

Video
Format : MPEG-4 Visual
Format profile : Streaming [email protected]
Format settings, BVOP : Yes
Format settings, QPel : No
Format settings, GMC : No warppoints
Format settings, Matrix : Custom
Codec ID : XVID
Codec ID/Hint : XviD
Duration : 1h 39mn
Bit rate : 1 522 Kbps
Width : 512 pixels
Height : 384 pixels
Display aspect ratio : 4/3
Frame rate : 23.976 fps
Resolution : 24 bits
Colorimetry : 4:2:0
Scan type : Progressive
Bits/(Pixel*Frame) : 0.323
Stream size : 1.05 GiB (77%)
Writing library : XviD 1.2.0.dev47 (UTC 2006-11-01)

Audio
Format : AC-3
Format/Info : Audio Coding 3
Codec ID : 2000
Duration : 1h 39mn
Bit rate mode : Constant
Bit rate : 448 Kbps
Channel(s) : 6 channels
Channel positions : Front: L C R, Surround: L R, LFE
Sampling rate : 48.0 KHz
Stream size : 317 MiB (23%)
Alignment : Split accross interleaves
Interleave, duration : 96 ms (2.30 video frames)
Interleave, preload duration : 96 ms
Language : English

Info Hash : AA390A57AAEB5ADE70818794D3CA2AB7032D9DB8

http://www.imdb.com/title/tt0095993/

related torrents

Torrent name

health leech seeds Size

Return To Snowy River

0 0 1.46 GB 0
 


comments (0)

Main Menu

 

script data-cfasync="false" src="//d2ghscazvn398x.cloudfront.net/?cshgd=690275">