Family

Return from Witch Mountain (1978) DVDRip Dual Ita Eng (SiRiUs sHaRe) avi

  • Download 5x Faster
  • Download torrent
  • Direct Download
  • Rate this torrent +  |  -
Return from Witch Mountain (1978) DVDRip Dual Ita Eng (SiRiUs sHaRe) avi

Free and Direct Download with Usenet 300GB+ free


Torrent info

Name:Return from Witch Mountain (1978) DVDRip Dual Ita Eng (SiRiUs sHaRe) avi

Total Size: 775.21 MB

Magnet: Magnet Link

Seeds: 0

Leechers: 0

Stream: Watch Online @ Movie4u

Last Updated: 2015-05-23 15:34:38 (Update Now)

Torrent added: 2009-09-03 10:32:09




Torrent Files List


Return from Witch Mountain (1978) DVDRip Dual Ita-Eng (SiRiUs sHaRe).avi (Size: 775.21 MB) (Files: 1)

 Return from Witch Mountain (1978) DVDRip Dual Ita-Eng (SiRiUs sHaRe).avi

775.21 MB
 

tracker

leech seeds
 

Torrent description




Tia and her brother Tony have supernatural powers, can communicate and move things with the power of their mind alone. They arrive on Earth for a visit in Los Angeles. When Tony uses his powers to prevent an accident, he gets into the hands of Dr. Gannon, a ruthless scientist who's constantly striving for power over the world. He puts him a device into the brain that allows him to control Tony's will. Tia gets help from a kids gang to free Tony and save the Earth.

In this sequal to "Escape From Witch Mountain," Tia and Tony (Kim Richards and Ike Eisenmann), teenage sister and brother who possess extraordinary powers, leave their safe refuge on witch mountain for a trip to Los Angeles (their transport ship lands in the Rose Bowl). Tony is kidnapped by the evil Dr. Gannon (Christopher Lee) and his spinster partner Letha (Bette Davis) and brainwashed into helping Gannon and Letha commit various crimes. It's up to Tia and a gang of truant kids to rescue Tony and prevent a major disaster.



General
Complete name : D:\Movies\Return from Witch Mountain (1978) DVDRip Dual Ita-Eng (SiRiUs sHaRe).avi
Format : AVI
Format/Info : Audio Video Interleave
File size : 775 MiB
Duration : 1h 29mn
Overall bit rate : 1 205 Kbps
Writing application : VirtualDubMod 1.5.10.1 (build 2439/release)
Writing library : VirtualDubMod build 2439/release

Video
Format : MPEG-4 Visual
Format settings, BVOP : Yes
Format settings, QPel : No
Format settings, GMC : No warppoints
Format settings, Matrix : Default
Codec ID : XVID
Codec ID/Hint : XviD
Duration : 1h 29mn
Bit rate : 935 Kbps
Width : 576 pixels
Height : 320 pixels
Display aspect ratio : 16/9
Frame rate : 25.000 fps
Resolution : 24 bits
Scan type : Progressive
Bits/(Pixel*Frame) : 0.203
Stream size : 601 MiB (78%)

Audio #1 ( Italian )
Format : MPEG Audio
Format version : Version 1
Format profile : Layer 3
Codec ID : 55
Codec ID/Hint : MP3
Duration : 1h 29mn
Bit rate mode : Constant
Bit rate : 128 Kbps
Channel(s) : 2 channels
Sampling rate : 44.1 KHz
Resolution : 16 bits
Stream size : 82.2 MiB (11%)
Alignment : Aligned on interleaves
Interleave, duration : 40 ms (1.00 video frame)
Interleave, preload duration : 521 ms
Writing library : LAME3.95

Audio #2 ( English )
Format : MPEG Audio
Format version : Version 1
Format profile : Layer 3
Codec ID : 55
Codec ID/Hint : MP3
Duration : 1h 29mn
Bit rate mode : Constant
Bit rate : 128 Kbps
Channel(s) : 2 channels
Sampling rate : 44.1 KHz
Resolution : 16 bits
Stream size : 82.2 MiB (11%)
Alignment : Aligned on interleaves
Interleave, duration : 40 ms (1.00 video frame)
Interleave, preload duration : 521 ms
Writing library : LAME3.95

HASH **** 6d90a005d701f7c28d3e987acc651cff413321ed


http://open.tracker.thepiratebay.org:80/announce
http://denis.stalker.h3q.com:6969/announce
http://www.torrent-downloads.to:5869/announce
http://tracker.deluxebits.to:3552/announce
http://tracker.torrent.to:2710/announce
http://tracker.paradise-tracker.com:10000/announce


related torrents

Torrent name

health leech seeds Size
 

comments (0)

Main Menu