Romance

[WiTa]Dirty Dancing 1987 HDDVD 720p(2)

  • Download 5x Faster
  • Download torrent
  • Direct Download
  • Rate this torrent +  |  -
[WiTa]Dirty Dancing 1987 HDDVD 720p(2)

Anonymous and Free Direct Download 300GB+


Torrent info

Name:[WiTa]Dirty Dancing 1987 HDDVD 720p(2)

Total Size: 4.08 GB

Magnet: Magnet Link

Seeds: 0

Leechers: 0

Stream: Watch Online @ Movie4u

Last Updated: 2015-09-20 14:06:20 (Update Now)

Torrent added: 2009-09-03 10:29:21



VPN For Torrents

Torrent Files List


Dirty.Dancing.1987.HDDVD german DTS6.1.mkv (Size: 4.08 GB) (Files: 1)

 Dirty.Dancing.1987.HDDVD german DTS6.1.mkv

4.08 GB
 

tracker

leech seeds
 

Torrent description

Titel...............................: Dirty Dancing
Erscheinungsdatum...................: 1987
Spieldauer..........................: 1h 33m
Format (mkv,avi)....................: mkv
Codec (MPEG 4,H.264/AVC)............: AVC
Formatinfos (Aufloesung/FPS/etc. )..: 1280x720, 25FPS
Soundformat.........................: DTS 6.1
Videobitrate........................: 5 387 Kbps
Audiobitrate........................: 755 Kbps
FSK.................................: 12
Sprachen............................: deutsch
Untertitel..........................: -

Die 17-jhrige Frances Houseman, auch Baby genannt, verbringt im Sommer 1963 die Ferien mit ihren der oberen Mittelschicht angehrigen Eltern und ihrer Schwester Lisa in einem Ferienresort und lernt dort den aus der Unterschicht stammenden Tanzlehrer Johnny Castle kennen. Sie traut sich in die Unterkunft der Hotelangestellten. Dort kommen sich Baby und Johnny nher; er lehrt sie zu tanzen.

Johnnys Tanzpartnerin Penny Johnson ist ungewollt schwanger und beschliet, das Kind abtreiben zu lassen. Da der Arzt nur an einem Abend Zeit hat, fllt sie fr einen wichtigen Tanzauftritt aus und Frances springt fr sie ein. Doch Penny wird von einem Pfuscher behandelt und hat starke Schmerzen. Babys Vater (der ebenfalls Arzt ist) behandelt sie.

Im Laufe des Films verliebt sich Baby in Johnny und beginnt eine Affre mit ihm. Als ihre Beziehung bekannt wird, verliert Johnny seinen Job als Tanzlehrer. Als Johnny mit Baby am letzten Abend der Saison den letzten Mambo zu (Ive had) The Time of my Life tanzt, wendet sich alles zum Guten.


Media Info:
Format : Matroska
File size : 4.08 GiB
Duration : 1h 33mn
Overall bit rate : 6 267 Kbps
Encoded date : UTC 2008-02-23 10:26:43
Writing application : mkvmerge v2.1.0 ('Another Place To Fall') built on Aug 19 2007 13:40:07
Writing library : libebml v0.7.7 + libmatroska v0.8.1

Video
ID : 1
Format : AVC
Format/Info : Advanced Video Codec
Format profile : [email protected]
Format settings, CABAC : Yes
Format settings, ReFrames : 8 frames
Muxing mode : Container [email protected]
Codec ID : V_MPEG4/ISO/AVC
Duration : 1h 33mn
Bit rate : 5 387 Kbps
Width : 1 280 pixels
Height : 720 pixels
Display aspect ratio : 16:9
Frame rate : 25.000 fps
Original frame rate : 23.976 fps
Resolution : 24 bits
Colorimetry : 4:2:0
Scan type : Progressive
Bits/(Pixel*Frame) : 0.234
Stream size : 3.51 GiB (86)
Writing library : x264 core 56
Encoding settings : cabac=1 / ref=5 / deblock=1:0:0 / analyse=0x3:0x133 / me=umh / subme=7 / brdo=1 / mixed_ref=1 / me_range=16 / chroma_me=1 / trellis=1 / 8x8dct=1 / cqm=2 / deadzone=21,11 / chroma_qp_offset=0 / threads=3 / nr=0 / decimate=1 / mbaff=0 / bframes=3 / b_pyramid=1 / b_adapt=1 / b_bias=0 / direct=3 / wpredb=1 / bime=1 / keyint=250 / keyint_min=25 / scenecut=40(pre) / rc=crf / crf=18.0 / rceq='blurCplx(1-qComp)' / qcomp=0.60 / qpmin=10 / qpmax=51 / qpstep=4 / ip_ratio=1.40 / pb_ratio=1.30
Language : German

Audio
ID : 2
Format : DTS
Format/Info : Digital Theater Systems
Format profile : ES
Codec ID : A_DTS
Duration : 1h 33mn
Bit rate mode : Constant
Bit rate : 755 Kbps
Channel(s) : 7 channels
Channel positions : Front: L C R, Rear: L C R, LFE
Sampling rate : 48.0 KHz
Resolution : 24 bits
Video delay : 11ms
Stream size : 503 MiB (12)
Title : DTS ES 6.1 768kbps
Language : German

related torrents

Torrent name

health leech seeds Size
 


comments (0)

Main Menu