Movies - Other

[most wanted] Der Clown

  • Download 5x Faster
  • Download torrent
  • Direct Download
  • Rate this torrent +  |  -
[most wanted] Der Clown

Free and Direct Download with Usenet.nl 300GB+ free


Torrent info

Name:[most wanted] Der Clown

Total Size: 14.08 GB

Magnet: Magnet Link

Seeds: 1

Leechers: 0

Stream: Watch Online @ Movie4u

Last Updated: 2010-12-31 14:36:15 (Update Now)

Torrent added: 2009-09-03 10:24:58





Torrent Files List


Der.Clown.S1 (Size: 14.08 GB) (Files: 43)

 Der.Clown.S1

  02.Tod.durch.Erpressung.avi

327.10 MB

  01.Dreckiges.Geld.avi

326.91 MB

  04.Harlekin.avi

314.54 MB

  03.Waffenbrueder.avi

314.18 MB

  08.Freifall.avi

297.47 MB

  06.Das.Duell.avi

295.82 MB

  13.Absturz.avi

295.68 MB

  07.Toedliche.Begegnung.avi

295.48 MB

  12.In.der.Zange.2.avi

293.01 MB

  10.Das.Lindenbergbaby.avi

292.72 MB

  09.Yakuza.avi

288.98 MB

  05.Die.Schatten.Rasputins.avi

288.09 MB

  11.In.der.Zange.1.avi

287.97 MB

 Der.Clown.S2

  24.Das.Wunderkind.avi

350.31 MB

  19.Mayday.avi

350.27 MB

  17.Schoene.Ferien.1.avi

350.27 MB

  14.Der.Hofnarr.avi

350.26 MB

  18.Schoene.Ferien.2.avi

350.23 MB

  22.Der.Rattenfaenger.avi

350.22 MB

  26.Schmutzige.Geschaefte.avi

350.16 MB

  25.Vatertag.avi

350.11 MB

  20.Handyman.avi

350.06 MB

  23.Happy.Birthday.avi

350.06 MB

  16.Feierabend.avi

350.05 MB

  27.Flash2.avi

350.05 MB

 Der.Clown.S3

  29.Die.Falle.avi

349.80 MB

  30.Rauchende.Colts.avi

349.79 MB

  31.Koelsch.Connection.Teil.1.avi

349.78 MB

  37.In.der.Hoehle.des.Loewen.avi

349.72 MB

  28.Knast.avi

349.72 MB

  38.60.Minuten.avi

349.65 MB

  33.Vollnarkose.avi

349.61 MB

  36.Hetzjagd.avi

349.61 MB

  35.Aasgeier.avi

349.61 MB

  39.Schwesterherz.avi

349.58 MB

  34.Unsichtbarer.Feind.avi

349.57 MB

  32.Koelsch.Connection.Teil.2.avi

349.56 MB

 Der.Clown.S4

  44.Stirb.Langsam.avi

349.66 MB

  40.Schutzgeld.avi

349.58 MB

  45.Unter.Verdacht.avi

349.58 MB

  43.Die.Elster.avi

349.50 MB

  41.Lautloser.Tod.avi

349.29 MB

  42.Gedaechtnisschwund.avi

349.26 MB
 

Announce URL: http://most-wanted.webhop.org/announce.php

Torrent description

Als Max Zander den Mord an seinem besten Freund untersucht, findet er eine Clownsmaske, die fortan zu seinem Markenzeichen wird. Zuerst dafür gedacht, den Mord unerkannt rächen zu können, wird "Der Clown" zu Zanders neuer Identität, wenn er sich auf die Jagd nach den gefährlichsten Verbrechern begibt.

Staffel 1:Der Clown 1. Staffel -
Folge 1 - Dreckiges Geld -
Folge 2 - Tod durch Erpressung -
Folge 3 - Waffenbrder -
Folge 4 - Harlekin -
Folge 5 - Die Schatten Rasputins -
Folge 6 - Das Duell -
Folge 7 - Tdliche Begegnung -
Folge 8 - Freifall -
Folge 9 - Yakuza -
Folge 10 - Lindenbergbaby -
Folge 11 - In der Zange - Teil 1 -
Folge 12 - In der Zange - Teil 2 -
Folge 13 - Absturz

Staffel 2:
01 Todesengel
02 Schmutzige Geschäfte
03 Feierabend
04 Schöne Ferien - Teil 1
05 Schöne Ferien - Teil 2
06 Mayday
07 Handyman
08 Flash
09 Der Rattenfänger
10 Happy Birthday
11 Das Wunderkind
12 Vatertag

Staffel 3:
01 Knast
02 Die Falle
03 Rauchende Colts
04 Kölsch Connection (Teil 1)
05 Kölsch Connection (Teil 2)
06 Vollnarkose
07 Unsichtbarer Feind
08 Aasgeier
09 Hetzjagd
10 In der Höhle des Löwen
11 60 Minuten
12 Schwesterherz

Staffel 4:
01 Schutzgeld
02 Lautloser Tod
03 Gedächtnisschwund
04 Die Elster
05 Stirb Langsam
06 Unter Verdacht

Video
ID : 0
Format : MPEG-4 Visual
Format settings, BVOP : Yes
Format settings, QPel : No
Format settings, GMC : No warppoints
Format settings, Matrix : Default (H.263)
Muxing mode : Packed bitstream
Codec ID : DX50
Codec ID/Hint : DivX 5
Duration : 44mn 47s
Bit rate : 780 Kbps
Width : 640 pixels
Height : 432 pixels
Display aspect ratio : 1.481
Frame rate : 25.000 fps
Resolution : 24 bits
Colorimetry : 4:2:0
Scan type : Progressive
Bits/(Pixel*Frame) : 0.113
Stream size : 250 MiB (79)
Writing library : DivX 6.4.0 (UTC 2006-10-03)

Audio
ID : 1
Format : MPEG Audio
Format version : Version 1
Format profile : Layer 3
Codec ID : 55
Codec ID/Hint : MP3
Duration : 44mn 47s
Bit rate mode : Constant
Bit rate : 192 Kbps
Channel(s) : 2 channels
Sampling rate : 44.1 KHz
Resolution : 16 bits
Video delay : 26ms
Stream size : 61.5 MiB (20)
Alignment : Split accross interleaves
Interleave, duration : 40 ms (1.00 video frame)
Title : Audio Stream

related torrents

Torrent name

health leech seeds Size
 

comments (0)

Main Menu