Family

Nutcracker(1994)THe story of Clara[H33T] [Naughty Knights]

  • Download 5x Faster
  • Download torrent
  • Direct Download
  • Rate this torrent +  |  -
Nutcracker(1994)THe story of Clara[H33T] [Naughty Knights]

Free and Direct Download with Usenet.nl 300GB+ free


Torrent info

Name:Nutcracker(1994)THe story of Clara[H33T] [Naughty Knights]

Total Size: 899.10 MB

Magnet: Magnet Link

Seeds: 0

Leechers: 0

Stream: Watch Online @ Movie4u

Last Updated: 0000-00-00 00:00:00 (Update Now)

Torrent added: 2009-09-03 10:16:16





Torrent Files List


nc1.jpg (Size: 899.10 MB) (Files: 6)

 nc1.jpg

26.28 KB

 ncthumbs.jpg

176.01 KB

 Nutcracker-desc.txt

4.32 KB

 nutcracker.avi

898.90 MB

 Torrent_downloaded_from_Demonoid.com.txt

0.05 KB

 tracked_by_h33t_com.txt

0.02 KB
 

Announce URL: http://tracker.publicbt.com/announce

Torrent description


* http://fr33sp33k.h33t.com/ or

* http://www.h33t.com/

* I am very busy learning to be a good mod,

* but I will continue trying to give you good original

* torrents not found elsewhere. Please seed, thanks.

*************************************
* name ..........: Nutcracker - The story of Clara(1994){Ballet}[H33T][Naughty Knights]

* Genre..........: Ballet

* Source ........: DVDrip

* Language ......: English

* Quality........: Good

* Hash ..........: FD02CA686E804D428306E5DBA7D637DBB281E20D

* Tracker 1......: http://www.h33t.com:3310/announce

* Tracker 2 .....: http://inferno.demonoid.com:3414/announce

* For file details see Mediainfo log below:
-----------------
INFO: [url]http://www.australianballet.com.au/res/NutcrackerSydSLPressRelease.pdf[/url]
----------------
images
Nutcracker(1994)THe story of Clara[H33T] [Naughty Knights] preview 0
Nutcracker(1994)THe story of Clara[H33T] [Naughty Knights] preview 1

----------------
Nutcracker – The Story of Clara takes audiences
deeper into Clara’s story and celebrates the strong
ties between Russian and Australian ballet. This
Nutcracker is set on a sweltering Melbourne
Christmas Eve in the late 1950s. Clara is a frail former
ballerina, reliving her rich and eventful life in one night
of feverish dreams. Clara’s journey echoes that of
many Ballets Russes dancers who toured Australia in
the late 1930s, enamouring audiences and helping
establish the art form in this country. Many of these
dancers would stay here for the rest of their lives.
Graeme Murphy illustrates this passage of time by
showing Clara at three stages in her life.

Based on the music of Tchaikovsky, but very Australianised
version. It will not be like any production of "THe Nutcracker"
you may have seen before.

The Australian Ballet Company mounted this loose adaptation of
Pyotr Illych Tchaikovsky's ballet The Nutcracker in 1994.
In lieu of the traditional narrative associated with that ballet,
this version relays the historical tale of a Russian ballerina
named Clara (played by three performers - Vicki Attard,
Margaret Scott and Siobhan Elsmann) who journeys to Australia
in the 1940s. Additional dancers in the company include
Steven Heathcote and David McAllister. Graeme Murphy choreographs;
the Orchestra Victoria (originally called The State Orchestra of Victoria)
lends added musical accompaniment.


--------------------------------------
Mediainfo log:
General
Complete name : Nutcracker(1994)The story of Clara[H33T] [Naughty Knights] nutcracker.avi
Format : AVI
Format/Info : Audio Video Interleave
File size : 899 MiB
Duration : 1h 52mn
Overall bit rate : 1 120 Kbps
Video
Format : AVC
Format/Info : Advanced Video Codec
Format profile : [email protected]
Format settings, CABAC : Yes
Format settings, ReFrames : 2 frames
Codec ID : H264
Duration : 1h 52mn
Bit rate : 726 Kbps
Width : 496 pixels
Height : 352 pixels
Display aspect ratio : 1.409
Frame rate : 25.000 fps
Resolution : 24 bits
Colorimetry : 4:2:0
Scan type : Progressive
Bits/(Pixel*Frame) : 0.166
Stream size : 583 MiB (65%)
Writing library : x264 core 58 svn-736bm

Audio
Format : AC-3
Format/Info : Audio Coding 3
Codec ID : 2000
Duration : 1h 52mn
Bit rate mode : Constant
Bit rate : 384 Kbps
Channel(s) : 2 channels
Channel positions : L R
Sampling rate : 48.0 KHz
Stream size : 308 MiB (34%)
Alignment : Split accross interleaves
Interleave, duration : 40 ms (1.00 video frame)
Interleave, preload duration : 500 ms


related torrents

Torrent name

health leech seeds Size
 

comments (0)

Main Menu