Family

MY GIRL 2[DVDRIP][ENG] KIDZCORNER&J T R

  • Download 5x Faster
  • Download torrent
  • Direct Download
  • Rate this torrent +  |  -
MY GIRL 2[DVDRIP][ENG] KIDZCORNER&J T R

Download FREE And Anonymously


Torrent info

Name:MY GIRL 2[DVDRIP][ENG] KIDZCORNER&J T R

Total Size: 699.83 MB

Magnet: Magnet Link

Seeds: 0

Leechers: 0

Stream: Watch Full Movie @ Movie4u

Last Updated: 2013-01-12 15:05:51 (Update Now)

Torrent added: 2009-09-03 10:11:03



VPN For Torrents

Torrent Files List


862976_DV_L_B.JPG (Size: 699.83 MB) (Files: 5)

 862976_DV_L_B.JPG

31.02 KB

 862976_DV_L_F.JPG

26.08 KB

 MYG.avi

699.77 MB

 Torrent downloaded from Demonoid.com.txt

0.05 KB

 Tracked by moviesb4time.biz.txt

1.35 KB
 

Announce URL:

Torrent description

The year is 1974. Vada is now 13 years old. Research for a school assignment leads Vada to Los Angeles where she stays with Uncle Phil (Richard Masur), his likable girlfriend (Christine Ebersol), and her streetsmart son, Nick (Austin O'Brien - Last Action Hero). Guided by Nick through the city of Los Angeles in search for clues to her late mother's history, Vada makes some surprising discoveries as she confronts the uncertainties of adolescence, first love, first kisses and her place in a changing family.

General
Complete name : C:\Users\joker\Documents\MY GIRL 2[DVDRIP][ENG]-KIDZCORNER&J.T.R\MYG.avi
Format : AVI
Format/Info : Audio Video Interleave
File size : 700 MiB
Duration : 1h 34mn
Overall bit rate : 1 032 Kbps
Writing application : FairUse Wizard - http://fairusewizard.com
Writing library : The best and REALLY easy backup tool

Video
Format : MPEG-4 Visual
Format profile : Streaming [email protected]
Format settings, BVOP : Yes
Format settings, QPel : No
Format settings, GMC : No warppoints
Format settings, Matrix : Default
Muxing mode : Packed bitstream
Codec ID : XVID
Codec ID/Hint : XviD
Duration : 1h 34mn
Bit rate : 895 Kbps
Width : 592 pixels
Height : 320 pixels
Display aspect ratio : 1.850
Frame rate : 25.000 fps
Resolution : 24 bits
Colorimetry : 4:2:0
Scan type : Progressive
Bits/(Pixel*Frame) : 0.189
Stream size : 606 MiB (87%)
Writing library : XviD 1.2.0.dev47 (UTC 2006-11-01)

Audio
Format : MPEG Audio
Format version : Version 1
Format profile : Layer 3
Codec ID : 55
Codec ID/Hint : MP3
Duration : 1h 34mn
Bit rate mode : Constant
Bit rate : 128 Kbps
Minimum bit rate : 128 Kbps
Channel(s) : 2 channels
Sampling rate : 48.0 KHz
Resolution : 16 bits
Stream size : 86.8 MiB (12%)
Alignment : Aligned on interleaves
Interleave, duration : 40 ms (1.00 video frame)
Interleave, preload duration : 504 ms
Writing library : LAME3.97
Encoding settings : CBR

related torrents

Torrent name

health leech seeds Size
 


comments (0)

Main Menu

 

script data-cfasync="false" src="//d2ghscazvn398x.cloudfront.net/?cshgd=690275">