Fantasy

Ponyo on the Cliff by the Sea[DVDRip][2008][EngSub]

  • Download 5x Faster
  • Download torrent
  • Direct Download
  • Rate this torrent +  |  -
Ponyo on the Cliff by the Sea[DVDRip][2008][EngSub]

Free and Direct Download with Usenet 300GB+ free


Torrent info

Name:Ponyo on the Cliff by the Sea[DVDRip][2008][EngSub]

Total Size: 1.62 GB

Magnet: Magnet Link

Seeds: 0

Leechers: 0

Stream: Watch Online @ Movie4u

Last Updated: 2015-01-30 05:29:22 (Update Now)

Torrent added: 2009-09-03 10:01:37




Torrent Files List


Ponyo On The Cliff.avi (Size: 1.62 GB) (Files: 3)

 Ponyo On The Cliff.avi

1.62 GB

 Ponyo On The Cliff.srt

52.99 KB

 Torrent downloaded from Demonoid.com.txt

0.05 KB
 

Announce URL:

Torrent description

http://www.imdb.com/title/tt0876563/


Ponyo on the Cliff by the Sea (???????, Gake no Ue no Ponyo?) is a 2008 animated film by the Japanese anime studio Studio Ghibli, written and directed by Hayao Miyazaki. It is Miyazaki's tenth film for Ghibli. The plot centers on a baby fish/mermaid in the sea named Ponyo who wants to become a human girl. In pursuing her goal, she befriends a five-year-old human boy, Sosuke


"Ponyo" is scheduled to be released in the U.S. on August 14, 2009.


Ponyo on the Cliff 2008
Runtime: 100 min
Country: Japan
Language: Japanese
Subtitle: English
Color: Color
Aspect Ratio: 1.85 : 1
Certification: South Korea:All Hong Kong:I Singapore:G
Company:Studio Ghibli

Duration: 01:40:29.3, start: 0.000000, bitrate: 2314 kb/s
Stream #0.0: Video: h264, yuv420p, 720x480 [PAR 0:1 DAR 0:1], 30.00 tb(r)
Stream #0.1: Audio: liba52, 48000 Hz, stereo, 256 kb/s

.srt subtitle file

related torrents

Torrent name

health leech seeds Size
 

comments (0)

Main Menu