Horror

[most wanted] The Final Destination 4 2009 Englisch TS MD XviD

  • Download 5x Faster
  • Download torrent
  • Direct Download
  • Rate this torrent +  |  -
[most wanted] The Final Destination 4 2009 Englisch TS MD XviD

Anonymous and free Direct Download 300GB+


Torrent info

Name:[most wanted] The Final Destination 4 2009 Englisch TS MD XviD

Total Size: 720.64 MB

Magnet: Magnet Link

Seeds: 0

Leechers: 0

Stream: Watch Online @ Movie4u

Last Updated: 0000-00-00 00:00:00 (Update Now)

Torrent added: 2009-09-03 09:28:37



SpyOFF VPN

Torrent Files List


Beschreibung.txt (Size: 720.64 MB) (Files: 5)

 Beschreibung.txt

2.37 KB

 Front.jpg

23.96 KB

 screencaps.jpg

223.43 KB

 The Final Destination 4 (2009) TS XviD.avi

720.40 MB

 The Final Destination 4 (2009) TS XviD.nfo

1.81 KB
 

Announce URL:

Torrent description

Format : AVI
Format/Info : Audio Video Interleave
File size : 720 MiB
Duration : 2h 32mn
Overall bit rate : 661 Kbps
Writing application : Lavf52.13.0
Original source form : MAX TORRENTZ
Copyright : SIGISMUNT

Video
Format : xvid
Codec ID : xvid
Duration : 1h 16mn
Bit rate : 1 150 Kbps
Width : 640 pixels
Height : 480 pixels
Display aspect ratio : 4/3
Frame rate : 25.000 fps
Resolution : 24 bits
Bits/(Pixel*Frame) : 0.150
Stream size : 626 MiB (87)

Audio
Format : MPEG Audio
Format version : Version 2
Format profile : Layer 3
Codec ID : 55
Codec ID/Hint : MP3
Duration : 2h 32mn
Bit rate mode : Constant
Bit rate : 160 Kbps
Channel(s) : 2 channels
Sampling rate : 22.05 KHz
Resolution : 16 bits
Stream size : 87.2 MiB (12)
Alignment : Aligned on interleaves
Interleave, duration : 26 ms (0.65 video frame)
Writing library : LAME3.98 (beta)

Für McKinley Speedway hätte es ein typischer Renntag werden sollen. Doch alles kommt ganz anders. Nick O Bannon (Bobby Campo) hat eine grausige Vorahnung, in der ein Rennwagen einen furchtbaren Unfall hat und die Trümmer mitten in die Menge geschleudert werden. Dadurch werden seine Freunde auf furchtbare Art getötet und ein Überstand fällt auf ihn herab.

Nachdem er aus seiner Vision erwacht, kann er nicht fassen, wie realistisch dies alles war. Deshalb reagiert er panisch und kann die Jugendlichen im letzten Moment davon überzeugen, die Tribüne zu verlassen.
Nur wenige Sekunden darauf wird seine Vision Wirklichkeit...

Doch dies ist erst der Anfang. Nach und nach beginnen die Überlebenden auf noch schrecklichere Art zu sterben. Die Aufgabe von Nick ist es nun, herauszufinden, wie er den Tod überlisten kann.

related torrents

Torrent name

health leech seeds Size
 


comments (0)

Main Menu