Fantasy

Krabat 2008 DVDRIP XviD ZEKTORM

  • Download 5x Faster
  • Download torrent
  • Direct Download
  • Rate this torrent +  |  -
Krabat 2008 DVDRIP XviD ZEKTORM

Anonymous and Direct Download 300GB+ free


Torrent info

Name:Krabat 2008 DVDRIP XviD ZEKTORM

Total Size: 702.49 MB

Magnet: Magnet Link

Seeds: 6

Leechers: 0

Stream: Watch Online @ Movie4u

Last Updated: 2016-01-03 18:50:07 (Update Now)

Torrent added: 2009-09-03 09:05:01




Torrent Files List


K-ZEKTORM.avi (Size: 702.49 MB) (Files: 5)

 K-ZEKTORM.avi

700.67 MB

 READ.hlp

11.58 KB

 Subs

  K-ZEKTORM.idx

33.03 KB

  K-ZEKTORM.sub

1.78 MB

 Torrent downloaded from Demonoid.com.txt

0.05 KB
 

tracker

leech seeds
 

Torrent description

Format : AVI
File size : 701 MiB
Duration : 1h 59mn
Overall bit rate : 817 Kbps
Subtitles : English (Format: VobSub)
Source : DVD NTSC

Video
Format : MPEG-4 Visual
Format profile : Streaming Video@L1
Codec ID : DX50
Codec ID/Hint : DivX 5
Duration : 1h 59mn
Bit rate : 682 Kbps
Width : 720 pixels
Height : 320 pixels
Display aspect ratio : 2.25
Frame rate : 23.976 fps
Resolution : 24 bits
Colorimetry : 4:2:0
Scan type : Progressive
Bits/(Pixel*Frame) : 0.123
Stream size : 585 MiB (83%)
Writing library : XviD

Audio
Language : German
Format : MPEG Audio
Format version : Version 1
Format profile : Layer 3
Codec ID : 55
Codec ID/Hint : MP3
Duration : 1h 59mn
Bit rate mode : Constant
Bit rate : 128 Kbps
Minimum bit rate : 128 Kbps
Channel(s) : 2 channels
Sampling rate : 48.0 KHz
Resolution : 16 bits
Video delay : 96ms
Stream size : 110 MiB (16%)
Writing library : LAME3.98r
Encoding settings : CBR

related torrents

Torrent name

health leech seeds Size
 


comments (0)

Main Menu